Audio qui disparait après ré-encodage ??

Fusion des anciens forums encodage et re-encodage

Modérateur: Modérateurs

Audio qui disparait après ré-encodage ??

Messagepar difool42000 » Sam 31 Oct, 2009 20:07

bonjour,

Voila dans mon post précédent j'ai demandé de l'aide pour ré-encodé mes vidéos et ce souci la a été réglé mais, en voici un autre assez étrange quand même.

Donc durée des vidéo 40min :

Voici les info d'une des ces vidéos ( avant ré-encodage.) :

Format : AVI

Format/Info : Audio Video Interleave
File size : 350 MiB
Duration : 40mn 58s
Overall bit rate : 1 195 Kbps
Writing application : transcode-1.0.2


Video

Format : MPEG-4 Visual
Format profile : Streaming Video@L1
Format settings, BVOP : Yes
Format settings, QPel : No
Format settings, GMC : No warppoints
Format settings, Matrix : Default
Muxing mode : Packed bitstream
Codec ID : XVID
Codec ID/Hint : XviD
Duration : 40mn 58s
Bit rate : 1 061 Kbps
Width : 624 pixels
Height : 352 pixels
Display aspect ratio : 16/9
Frame rate : 23.976 fps
Resolution : 24 bits
Colorimetry : 4:2:0
Scan type : Progressive
Bits/(Pixel*Frame) : 0.202
Stream size : 311 MiB (89%)
Writing library : XviD 50


Audio

Format : MPEG Audio
Format version : Version 1
Format profile : Layer 3
Codec ID : 55
Codec ID/Hint : MP3
Duration : 40mn 58s
Bit rate mode : Variable
Bit rate : 112 Kbps
Channel(s) : 2 channels
Sampling rate : 48.0 KHz
Resolution : 16 bits
Stream size : 35.4 MiB (10%)
Alignment : Aligned on interleaves
Interleave, duration : 24 ms (0.58 video frame)



Voici les info de la même vidéo après ré-encodage et avec 2mn57s de son qui on disparue a la fin de la vidéo en question :

Format : AVI

Format/Info : Audio Video Interleave
File size : 353 MiB
Duration : 40mn 58s
Overall bit rate : 1 203 Kbps
Writing application : VirtualDubMod 1.5.10.2 Fr | www.trad-fr.com || (build 2540/release)
Writing library : VirtualDubMod build 2540/release

Video

Format : MPEG-4 Visual
Format profile : Streaming Video@L1
Format settings, BVOP : Yes
Format settings, QPel : No
Format settings, GMC : No warppoints
Format settings, Matrix : Default
Muxing mode : Packed bitstream
Codec ID : XVID
Codec ID/Hint : XviD
Duration : 40mn 58s
Bit rate : 1 079 Kbps
Width : 528 pixels
Height : 352 pixels
Display aspect ratio : 1.500
Frame rate : 23.976 fps
Resolution : 24 bits
Colorimetry : 4:2:0
Scan type : Progressive
Bits/(Pixel*Frame) : 0.242
Stream size : 316 MiB (90%)
Writing library : XviD 50

Audio

Format : MPEG Audio
Format version : Version 1
Format profile : Layer 3
Codec ID : 55
Codec ID/Hint : MP3
Duration : 38mn 1s
Bit rate mode : Variable
Bit rate : 121 Kbps
Channel(s) : 2 channels
Sampling rate : 48.0 KHz
Resolution : 16 bits
Stream size : 32.8 MiB (9%)
Alignment : Aligned on interleaves
Interleave, duration : 26 ms (0.62 video frame)
Interleave, preload duration : 534 ms



Ensuite sur cette même vidéo j'ai prit l'original qui a bien les 40mn58s d'audio , j'ai démuxer pour remuxer dans la vidéo qui a été ré-encoder sauf une foi le démuxage effectuer le fichier MP3 est de 38mn1s.
Donc je n'est pas prit la peine de le remuxer dans la vidéo ré-encoder.

De plus après que le démuxage a été fait un message est apparue :

The fonction setmode was called on a stream [?] that hasn't been previously initialized with Set Source

(on ma répondu pour ce message " Ca veut dire que le son n'a pas été trouvé là où il devait se trouver..")

voila merci d'avance.


ps: j'ai crée ce nouveau post pour que ce soit plus clair et pas a la suite de mon autre topic qui est en " résolu"

merci
difool42000
 
Messages: 33
Inscription: 28 Oct 2009
Localisation: Saint étienne

Messagepar BiGf0oT » Dim 01 Nov, 2009 13:40

The fonction setmode was called on a stream [?] that hasn't been previously initialized with Set Source

Ce message d'erreur arrive souvent lorsque les fichiers à traiter ont des chemins d'accès comportant des caractères spéciaux et des espaces et ceci pour le nom du fichier ou du répertoire de travail
Proverbe Chien : Si ça ne se mange pas, Si ça ne se baise bas, Pisse dessus !
Avatar de l’utilisateur
BiGf0oT
Administrateur
Administrateur
 
Messages: 6072
Inscription: 03 Fév 2007
Localisation: Dans ma grotte

Messagepar difool42000 » Dim 01 Nov, 2009 14:58

Merci pour ta réponse mais, ce n'est pas le cas mes vidéos n'on pas d'espace ou de caractère spéciaux, elle sont a la racine de mon disque dur et les espace remplacé par des point.
difool42000
 
Messages: 33
Inscription: 28 Oct 2009
Localisation: Saint étienne

Messagepar pepsilite » Dim 01 Nov, 2009 15:41

ça n'est surement pas le problème là, mais il faut remplacer les espaces par des _ et pas de points, au risque de perturber certains softs sur la positions réèlle de l'extension du fichier.
05/07/15 m4ng v5 est disponible au téléchargement en version finale : m4ng v5
Avatar de l’utilisateur
pepsilite
The Grinch
The Grinch
 
Messages: 22992
Inscription: 03 Fév 2007
Localisation: Chez moi le plus possible ...

Messagepar difool42000 » Dim 01 Nov, 2009 15:44

Oui je veut bien remplacer les point par _ mais pourquoi sur certaine vidéo sa marche nickel alors que les _ sont des point.
difool42000
 
Messages: 33
Inscription: 28 Oct 2009
Localisation: Saint étienne

Messagepar pepsilite » Dim 01 Nov, 2009 15:52

j'ai dit que ça n'était PAS ton problème actuel MAIS qu'il fallait éviter "en général"...
Je n'en sais rien pour ta vidéo qui pose souci mais je constate que les vidéos sont quand même très problématiques chez toi.
05/07/15 m4ng v5 est disponible au téléchargement en version finale : m4ng v5
Avatar de l’utilisateur
pepsilite
The Grinch
The Grinch
 
Messages: 22992
Inscription: 03 Fév 2007
Localisation: Chez moi le plus possible ...

Messagepar difool42000 » Dim 01 Nov, 2009 16:04

Ah ok désolé pour la confusion, et oui les vidéos on l'air d'être très capricieuse chez moi, donc voila je c'est pas, a part acheté un lecteur dvd qui prend en compte les sous titres et graver mes sous titres + la vidéo je voie pas lol, faut être patient.
difool42000
 
Messages: 33
Inscription: 28 Oct 2009
Localisation: Saint étienne

Messagepar pepsilite » Dim 01 Nov, 2009 17:10

... ou apprendre la langue d'origine ...
05/07/15 m4ng v5 est disponible au téléchargement en version finale : m4ng v5
Avatar de l’utilisateur
pepsilite
The Grinch
The Grinch
 
Messages: 22992
Inscription: 03 Fév 2007
Localisation: Chez moi le plus possible ...

Messagepar difool42000 » Dim 01 Nov, 2009 17:39

:mrgreen: je veut pas faire le pessimiste mais mes notes en Anglais ne dépasse pas les 5 sur .... vous savez lol et puis c'est vrai que c'est pas très compliquez mais j'ai pas encore le niveau pour regarder sans sub. Mais j'espère qu'un jour sa sera le cas.
difool42000
 
Messages: 33
Inscription: 28 Oct 2009
Localisation: Saint étienne


Retourner vers m4ng V1

Qui est en ligne

Utilisateurs parcourant ce forum: Aucun utilisateur enregistré et 0 invités