Encodage video AVC.

Modérateur: Modérateurs

Encodage video AVC.

Messagepar Dak94 » Sam 31 Aoû, 2013 9:55

Bonjour.
J'ai un petit soucis lorsque que je veux encoder un fichier mp4 720p en avi.

Voila les infos du fichier :
Code: Tout sélectionner
General
Complete name                    : c:\users\dorian\desktop\nouveau dossier\[alliance]little mom scandal s1e01 720p.mp4
Format                           : MPEG-4
Format profile                   : Base Media
Codec ID                         : isom
File size                        : 1.54 GiB
Duration                         : 52mn 35s
Overall bit rate                 : 4 191 Kbps
Writing application              : Lavf54.61.104

Video
ID                               : 1
Format                           : AVC
Format/Info                      : Advanced Video Codec
Format profile                   : High@L3.1
Format settings, CABAC           : Yes
Format settings, ReFrames        : 4 frames
Format settings, GOP             : M=1, N=5
Codec ID                         : avc1
Codec ID/Info                    : Advanced Video Coding
Duration                         : 52mn 33s
Bit rate mode                    : Variable
Bit rate                         : 4 000 Kbps
Width                            : 1 280 pixels
Height                           : 720 pixels
Display aspect ratio             : 16:9
Frame rate mode                  : Variable
Frame rate                       : 29.970 fps
Minimum frame rate               : 20.000 fps
Maximum frame rate               : 30.303 fps
Color space                      : YUV
Chroma subsampling               : 4:2:0
Bit depth                        : 8 bits
Scan type                        : Progressive
Bits/(Pixel*Frame)               : 0.145
Stream size                      : 1.47 GiB (95%)
Writing library                  : x264 core 112
Encoding settings                : cabac=1 / ref=3 / deblock=1:0:0 / analyse=0x3:0x113 / me=umh / subme=7 / psy=1 / psy_rd=1.00:0.00 / mixed_ref=1 / me_range=16 / chroma_me=1 / trellis=1 / 8x8dct=1 / cqm=0 / deadzone=21,11 / fast_pskip=1 / chroma_qp_offset=-2 / threads=6 / sliced_threads=0 / nr=0 / decimate=1 / interlaced=0 / constrained_intra=0 / bframes=3 / b_pyramid=2 / b_adapt=2 / b_bias=0 / direct=1 / weightb=1 / open_gop=0 / weightp=2 / keyint=300 / keyint_min=29 / scenecut=40 / intra_refresh=0 / rc_lookahead=50 / rc=2pass / mbtree=1 / bitrate=4000 / ratetol=1.0 / qcomp=0.60 / qpmin=3 / qpmax=51 / qpstep=4 / cplxblur=20.0 / qblur=0.5 / ip_ratio=1.40 / aq=1:1.00
Color primaries                  : BT.709-5, BT.1361, IEC 61966-2-4, SMPTE RP177
Transfer characteristics         : BT.709-5, BT.1361
Matrix coefficients              : BT.709-5, BT.1361, IEC 61966-2-4 709, SMPTE RP177

Audio
ID                               : 2
Format                           : AAC
Format/Info                      : Advanced Audio Codec
Format profile                   : LC
Codec ID                         : 40
Duration                         : 52mn 35s
Bit rate mode                    : Variable
Bit rate                         : 181 Kbps
Maximum bit rate                 : 186 Kbps
Channel(s)                       : 2 channels
Channel positions                : Front: L R
Sampling rate                    : 48.0 KHz
Compression mode                 : Lossy
Stream size                      : 68.2 MiB (4%)



Et mon installation :
Code: Tout sélectionner
m4ng Video Analyser  [ 3.2.2.0 - SubsWay - (exp 31/12/13) ]

(ChainLess: OFF)

[ Video ]
DivX :           - [ INTROUVABLE ]
Xvid :          OK [ Xvid 1.2.2 final  ]
X264 (cli) :       OK [ x264 0.118.2085 8a62835 ]
X264 (vfw) :       OK
VP6 :           - [ INTROUVABLE ]
VP7 :           - [ INTROUVABLE ]
DivX 3.11 :        - [ INTROUVABLE ]
Quicktime Alternative :  - [ INTROUVABLE ]
Quicktime Lite :     - [ INTROUVABLE ]
CoreAVC :        - [ INTROUVABLE ]
Real Alternative :     - [ INTROUVABLE ]
Real Video 10 :     - [ INTROUVABLE ]
DirectVobSub :        - [ INTROUVABLE ]
VSfilter :       OK [ 1.0.1.5 ]
ffdshow :        - [ INTROUVABLE ]
----------------------------------------------------
[ Audio ]
CORE - AAC Codec :    OK [ 1.2.0.575 ]
CORE - VORBIS Codec :     - [ INTROUVABLE ]
LAME - MP3 Codec :    OK [ 0.9.1.0 ]
AC3 Filter :       OK [ 1.63b ]
Oggcodecs :        - [ INTROUVABLE ]
OggDs :       OK [ ??? ]
----------------------------------------------------
[ Miscs ]
Windows :       Windows 7 Professional [Windows 7 Professional]
UAC :          User Account Control OFF
Temp :          C:\Users\Dorian\AppData\Roaming\m4ng\
Matroska Splitter :     - [ INTROUVABLE ]
DGindex :       OK [ 1.5.0.0 ]
m4ng Codec Pack :    OK [ v 2.0 ]
DVDFab Platinum :     - [ INTROUVABLE ]
DVDFab Decrypter :     - [ INTROUVABLE ]
DVDFab HD Decrypter :     - [ INTROUVABLE ]
 - [ INTROUVABLE ]
DVDFab :        - [ INTROUVABLE ]
Web Browser :       C:\Program Files (x86)\Google\Chrome\Application\chrome.exe
----------------------------------------------------
[ Avisynth ]
AVIsynth.dll       OK [ 2.5.8.5 ]
C:\Program Files (x86)\AviSynth 2.5\plugins\*.*
 - colors_rgb.avsi OK
 - DirectShowSource.dll OK
 - TCPDeliver.dll OK
----------------------------------------------------
[ Matroska (MKV) ]
MKVExtractGui by DP :    OK [ 1.6.5.300 ]
MKVtoolnix :       MKVINFOS :         - [ INTROUVABLE ]
DEMUX MKV :         - [ INTROUVABLE ]
----------------------------------------------------
[ CLI - Command line interfaces ]
Nero AAC Encoder :     - [ INTROUVABLE ]
----------------------------------------------------
Drives :
C:\ D:\ E:\

C: - DRIVE_FIXED
D: - DRIVE_CDROM
E: - DRIVE_REMOVABLE

** END OF FILE - 01981 bytes


Il y a un soucis au niveau de la vidéo ce qui fait que je ne peux pas l'encodé, il m'affiche en sortie une taille de 0 impossible a changer.

Pour ffdshow j'ai essayer avec celui du codec pack et la version 64bit vue que je suis sur win7 64bits mais étrangement pour cette derniere, il n'apparait pas sur m4ng.

Merci.
Dak94
 
Messages: 16
Inscription: 01 Mai 2010

Messagepar Underground78 » Sam 31 Aoû, 2013 10:01

Bonjour,

Il faut que tu installes un décodeur pour le H264. ffdshow peut être utilisé par exemple mais pas la version 64 bits puisque m4ng fonctionne avec des outils 32 bits (notamment AviSynth).

:did:
Avatar de l’utilisateur
Underground78
Administrateur
Administrateur
 
Messages: 11267
Inscription: 06 Fév 2007
Localisation: France

Messagepar Subbat » Sam 31 Aoû, 2013 10:37

Salut... et comme tu es sous win 7... Win7DSfilterTweaker
Image
Image Image
Avatar de l’utilisateur
Subbat
Administrateur
Administrateur
 
Messages: 8400
Inscription: 11 Déc 2008
Localisation: Quelque part... dans le centre de la France...

Messagepar Dak94 » Sam 31 Aoû, 2013 10:44

Alors, j'ai installer a nouveau la version de ffdshow du codec par et utiliser Win7DSfilterTweaker pour mettre ffdshow pour le H.264 mais rien n'y fait, c'est toujours pareil.
Dak94
 
Messages: 16
Inscription: 01 Mai 2010

Messagepar Subbat » Sam 31 Aoû, 2013 10:59

Ah pardon... nous n'avions pas vu... il te faut aussi installer le matroska splitter dispo dans le m4ng_CP...
Image
Image Image
Avatar de l’utilisateur
Subbat
Administrateur
Administrateur
 
Messages: 8400
Inscription: 11 Déc 2008
Localisation: Quelque part... dans le centre de la France...

Messagepar Dak94 » Dim 08 Sep, 2013 9:15

Desolé de repondre si tard, j'atait en déplacement.
J'ai installé matroska et c'est parfait :)

J'aurais une autre question du coup, je voudrais coller 2 vidéo mais apparement il y a un probleme car il me dit " The video streams have different data formats".

Voila les info des deux séquence :

Code: Tout sélectionner
General
Complete name                    : c:\users\dorian\desktop\drama\dvd1\episode 1\ok\nouveau dossier\out_intro.avi
Format                           : AVI
Format/Info                      : Audio Video Interleave
File size                        : 6.22 MiB
Duration                         : 10s 8ms
Overall bit rate                 : 5 214 Kbps
Writing application              : VirtualDubMod 1.5.10.2 Fr | www.trad-fr.com ||  (build 2540/release)
Writing library                  : VirtualDubMod build 2540/release

Video
ID                               : 0
Format                           : MPEG-4 Visual
Format profile                   : Advanced Simple@L5
Format settings, BVOP            : 1
Format settings, QPel            : No
Format settings, GMC             : No warppoints
Format settings, Matrix          : Default (H.263)
Muxing mode                      : Packed bitstream
Codec ID                         : XVID
Codec ID/Hint                    : XviD
Duration                         : 10s 0ms
Bit rate                         : 5 072 Kbps
Width                            : 720 pixels
Height                           : 544 pixels
Display aspect ratio             : 4:3
Frame rate                       : 25.000 fps
Color space                      : YUV
Chroma subsampling               : 4:2:0
Bit depth                        : 8 bits
Scan type                        : Progressive
Compression mode                 : Lossy
Bits/(Pixel*Frame)               : 0.518
Stream size                      : 6.05 MiB (97%)
Writing library                  : XviD 1.2.1 (UTC 2008-12-04)

Audio
ID                               : 1
Format                           : MPEG Audio
Format version                   : Version 1
Format profile                   : Layer 3
Codec ID                         : 55
Codec ID/Hint                    : MP3
Duration                         : 10s 8ms
Bit rate mode                    : Constant
Bit rate                         : 128 Kbps
Channel(s)                       : 2 channels
Sampling rate                    : 48.0 KHz
Compression mode                 : Lossy
Stream size                      : 156 KiB (2%)
Alignment                        : Aligned on interleaves
Interleave, duration             : 42 ms (1.05 video frame)
Interleave, preload duration     : 504 ms
Writing library                  : LAME3.98r
Encoding settings                : -m s -V 4 -q 2 -lowpass 17 -b 128


Code: Tout sélectionner
General
Complete name                    : c:\users\dorian\desktop\drama\dvd1\episode 1\ok\nouveau dossier\out_episode 01 ( nosize ).avi
Format                           : AVI
Format/Info                      : Audio Video Interleave
File size                        : 701 MiB
Duration                         : 1h 37mn
Overall bit rate                 : 1 000 Kbps
Writing application              : VirtualDubMod 1.5.10.2 Fr | www.trad-fr.com ||  (build 2540/release)
Writing library                  : VirtualDubMod build 2540/release

Video
ID                               : 0
Format                           : MPEG-4 Visual
Format profile                   : Advanced Simple@L5
Format settings, BVOP            : 1
Format settings, QPel            : No
Format settings, GMC             : No warppoints
Format settings, Matrix          : Default (H.263)
Muxing mode                      : Packed bitstream
Codec ID                         : XVID
Codec ID/Hint                    : XviD
Duration                         : 1h 37mn
Bit rate                         : 863 Kbps
Width                            : 720 pixels
Height                           : 540 pixels
Display aspect ratio             : 4:3
Frame rate                       : 25.000 fps
Color space                      : YUV
Chroma subsampling               : 4:2:0
Bit depth                        : 8 bits
Scan type                        : Progressive
Compression mode                 : Lossy
Bits/(Pixel*Frame)               : 0.089
Stream size                      : 605 MiB (86%)
Writing library                  : XviD 1.2.1 (UTC 2008-12-04)

Audio
ID                               : 1
Format                           : MPEG Audio
Format version                   : Version 1
Format profile                   : Layer 3
Codec ID                         : 55
Codec ID/Hint                    : MP3
Duration                         : 1h 37mn
Bit rate mode                    : Constant
Bit rate                         : 128 Kbps
Channel(s)                       : 2 channels
Sampling rate                    : 48.0 KHz
Compression mode                 : Lossy
Stream size                      : 89.7 MiB (13%)
Alignment                        : Aligned on interleaves
Interleave, duration             : 40 ms (1.00 video frame)
Interleave, preload duration     : 504 ms
Writing library                  : LAME3.98r
Encoding settings                : -m s -V 4 -q 2 -lowpass 17 -b 128


J'ai remarquer que le bit rate et la résolution sont légèrement différente, pourtant c'est le même profile d'encodage pour les deux vidéo.
Dak94
 
Messages: 16
Inscription: 01 Mai 2010

Messagepar Underground78 » Dim 08 Sep, 2013 10:23

La résolution est différente, tu ne peux pas coller deux vidéos dans ce cas. Tu vas être obligé d'en réencoder au moins une des deux pour que les résolutions soient identiques.
Avatar de l’utilisateur
Underground78
Administrateur
Administrateur
 
Messages: 11267
Inscription: 06 Fév 2007
Localisation: France

Messagepar Dak94 » Dim 08 Sep, 2013 11:49

J'ai déjà essayer, pour la première video qui est en 720x544, je veux la mettre en 720x540 comme la seconde.
Je vais dans "Prévisualisation", je décoche "conserver le ration" et quand je reduit la resulution, il passe de 544 a 528 ?
Dak94
 
Messages: 16
Inscription: 01 Mai 2010

Messagepar Subbat » Dim 08 Sep, 2013 12:02

Pour 4 pixels, le mieux c'est que dans la prévisualisation du aille sur le crop... tu enlèves 2 pixels en haut et 2 en bas... tu ne perdra presque rien et ce ne sera pas perceptible au visionnage... et tu auras ainsi une vidéo réencodée en 720x540...
Image
Image Image
Avatar de l’utilisateur
Subbat
Administrateur
Administrateur
 
Messages: 8400
Inscription: 11 Déc 2008
Localisation: Quelque part... dans le centre de la France...

Messagepar Dak94 » Dim 08 Sep, 2013 12:21

Yes, merci pour votre aide c'est super :)
Dak94
 
Messages: 16
Inscription: 01 Mai 2010

Messagepar Subbat » Dim 08 Sep, 2013 13:29

;)
Image
Image Image
Avatar de l’utilisateur
Subbat
Administrateur
Administrateur
 
Messages: 8400
Inscription: 11 Déc 2008
Localisation: Quelque part... dans le centre de la France...


Retourner vers m4ng V3

Qui est en ligne

Utilisateurs parcourant ce forum: Aucun utilisateur enregistré et 0 invités