Flac 32 bits en wave 16 bits

Les questions des débutants ...

Modérateur: Modérateurs

Flac 32 bits en wave 16 bits

Messagepar thefloyd » Mer 12 Nov, 2014 12:29

Salut, je vais p'têt poser une question idiote, mais j'ai des flac de ce style :

Code: Tout sélectionner
Général
Nom complet                              : H:\Genesis.16.Discs.Full.SACD.Anthology.1970-1997.SACD-R.FLAC.2.0-5.1-HDCLUB\Genesis - (1983) - Genesis [SACD]\2.0\Genesis - Genesis-20.flac
Format                                   : FLAC
Format/Info                              : Free Lossless Audio Codec
Taille du fichier                        : 926 Mio
Durée                                    : 46mn 19s
Type de débit global                     : Variable
Débit global moyen                       : 2 793 Kbps
Album                                    : Genesis
Piste/Total                              : 9
Interprète                               : Genesis
Genre                                    : Progressive Rock
Date d'enregistrement                    : 1983
cuesheet                                 : REM GENRE Progressive Rock / REM DATE 1983 / PERFORMER "Genesis" / TITLE "Genesis" / FILE "Genesis - Genesis-20.flac" WAVE /   TRACK 01 AUDIO /     TITLE "Mama" /     INDEX 01 00:00:00 /   TRACK 02 AUDIO /     TITLE "That's All" /     INDEX 01 06:52:19 /   TRACK 03 AUDIO /     TITLE "Home By The Sea" /     INDEX 01 11:18:32 /   TRACK 04 AUDIO /     TITLE "Second Home By The Sea" /     INDEX 01 16:26:21 /   TRACK 05 AUDIO /     TITLE "Illegal Alien" /     INDEX 01 22:33:47 /   TRACK 06 AUDIO /     TITLE "Taking It All Too Hard" /     INDEX 01 27:48:67 /   TRACK 07 AUDIO /     TITLE "Just A Job To Do" /     INDEX 01 31:47:07 /   TRACK 08 AUDIO /     TITLE "Silver Rainbow" /     INDEX 01 36:34:27 /   TRACK 09 AUDIO /     TITLE "It's Gonna Get Better" /     INDEX 01 41:05:06
HDCD                                     : 0
VALID_BITS                               : 24

Audio
Format                                   : FLAC
Format/Info                              : Free Lossless Audio Codec
Durée                                    : 46mn 19s
Type de débit                            : Variable
Débit                                    : 2 793 Kbps
Canaux                                   : 2 canaux
Echantillonnage                          : 88,2 KHz
Profondeur des couleurs                  : 24 bits
Taille du flux                           : 926 Mio (100%)
Bibliothèque utilisée                    : libFLAC 1.2.1 (UTC 2007-09-17)


si je les repasse en wave (si je trouve un logiciel qui peut le faire d'ailleurs, parceque je suis pas sûr que m4ng puisse), je présume qu'il vont repasser en 16 bits ?

et dans ce cas, je vais "perdre" ce que le 24 bits aura apporté n'est il pas ? :mrgreen:

merci.

@+
Avatar de l’utilisateur
thefloyd
 
Messages: 429
Inscription: 14 Juil 2012
Localisation: Toulouse

Retourner vers Premiers pas

Qui est en ligne

Utilisateurs parcourant ce forum: Aucun utilisateur enregistré et 1 invité