M4ng ne veut pas mon MP4

Les questions des débutants ...

Modérateur: Modérateurs

M4ng ne veut pas mon MP4

Messagepar jpdom » Lun 27 Avr, 2015 8:49

Bonjour à tous !

Ne pouvant regarder les mp4 sur mon lecteur de salon, je ré-encode en Avi.
Je viens de tomber sur un fichier dont M4ng ne veut pas.
M4ng Analyser me dit:

Format : MPEG-4
Format profile : Base Media
Codec ID : isom
File size : 140 MiB
Duration : 27mn 58s
Overall bit rate : 700 Kbps
Encoded date : UTC 2015-04-26 23:40:13
Tagged date : UTC 2015-04-26 23:40:13

Video
ID : 1
Format : AVC
Format/Info : Advanced Video Codec
Format profile : High@L3.1
Format settings, CABAC : Yes
Format settings, ReFrames : 5 frames
Codec ID : avc1
Codec ID/Info : Advanced Video Coding
Duration : 27mn 56s
Bit rate mode : Variable
Bit rate : 580 Kbps
Maximum bit rate : 2 031 Kbps
Width : 720 pixels
Height : 406 pixels
Display aspect ratio : 16:9
Frame rate mode : Constant
Frame rate : 23.976 fps
Color space : YUV
Chroma subsampling : 4:2:0
Bit depth : 8 bits
Scan type : Progressive
Bits/(Pixel*Frame) : 0.083
Stream size : 116 MiB (83%)
Writing library : x264 core 146 r2538 121396c
Encoding settings : cabac=1 / ref=5 / deblock=1:0:0 / analyse=0x3:0x133 / me=umh / subme=9 / psy=1 / psy_rd=1.00:0.00 / mixed_ref=1 / me_range=16 / chroma_me=1 / trellis=2 / 8x8dct=1 / cqm=0 / deadzone=21,11 / fast_pskip=1 / chroma_qp_offset=-2 / threads=18 / lookahead_threads=1 / sliced_threads=0 / nr=0 / decimate=1 / interlaced=0 / bluray_compat=0 / constrained_intra=0 / bframes=3 / b_pyramid=2 / b_adapt=2 / b_bias=0 / direct=3 / weightb=1 / open_gop=0 / weightp=2 / keyint=250 / keyint_min=23 / scenecut=40 / intra_refresh=0 / rc_lookahead=60 / rc=crf / mbtree=1 / crf=19.0 / qcomp=0.60 / qpmin=0 / qpmax=69 / qpstep=4 / ip_ratio=1.40 / aq=1:1.00
Encoded date : UTC 2015-04-26 18:44:29
Tagged date : UTC 2015-04-26 23:40:15
Matrix coefficients : BT.709-5, BT.1361, IEC 61966-2-4 709, SMPTE RP177

Audio
ID : 2
Format : AAC
Format/Info : Advanced Audio Codec
Format profile : LC
Codec ID : 40
Duration : 27mn 58s
Bit rate mode : Variable
Bit rate : 116 Kbps
Maximum bit rate : 149 Kbps
Channel(s) : 2 channels
Channel positions : Front: L R
Sampling rate : 48.0 KHz
Compression mode : Lossy
Stream size : 23.2 MiB (17%)
Encoded date : UTC 2015-04-26 23:40:15
Tagged date : UTC 2015-04-26 23:40:15


C'est où le bug ? (je suis en W7 64 bits... mais je n'utilise pas le codec 6.9.2)
merci d'avance...
jpdom
 
Messages: 79
Inscription: 09 Mar 2012
Localisation: Bordeaux

Messagepar misterd » Lun 27 Avr, 2015 18:10

Bonjour,
essaie peut-être en le mettant en mkv avec mkvmerge, on ne sait jamais, les mp4 peuvent être capricieux.
Avatar de l’utilisateur
misterd
 
Messages: 482
Inscription: 24 Oct 2007

Messagepar jpdom » Lun 27 Avr, 2015 18:45

Mais comme mon lecteur de salon ne lit pas non plus les MKV....
Pour rassurer M4ng, je peux dire que le soft "Super" ne veux pas non plus de ce fichier mp4 !!
ça fait longtemps qu'il faut une boussole dans la jungle des formats video et audio !
:roll:
jpdom
 
Messages: 79
Inscription: 09 Mar 2012
Localisation: Bordeaux

Messagepar misterd » Lun 27 Avr, 2015 19:21

je me suis mal exprimé, mets en le mkv et encode le avi. M4ng l' acceptera peut-être.
Avatar de l’utilisateur
misterd
 
Messages: 482
Inscription: 24 Oct 2007


Retourner vers Premiers pas

Qui est en ligne

Utilisateurs parcourant ce forum: Aucun utilisateur enregistré et 1 invité