Pas d'encodage en V5

Les questions des débutants ...

Modérateur: Modérateurs

Messagepar Koala » Jeu 30 Juin, 2016 17:07

Bon, pour ne pas faire d'erreur, j'ai tout effacer et recommencer.

Lancement m4 et toute la suite en contrôlant tout à chaque fois
Donc fichier vjdéo à la racine du disque
Nom court ; Hannibal.
GraphStudio OK
Lancement prévisualisation et découpage de la vidéo OK
Débit demandé 1000, Taille fichier final 1230. X264, MP4
Lancement conversion, 3 h plus tard, fichier final de 450 182 Mo
Pas de vidéo jusqu'au début du bloc 3

Contenu du fichier M4mbo_debug_mux.bat

chcp 1252
"C:\PROGRA~1\m4ng_v5\system\MP4box.exe" -cat "E:\OUT_HA~1.MP4" -cat "E:\OUT_HA~2.MP4" -cat "E:\OUT_HA~3.MP4" "E:\OUT_Hannibal.mp4"
pause


Si je clique sur le fichier, voici ce qu'il s'inscrit dans la fenêtre :

C:\Users\Koala\Appdata\Roaming\m4ng\chcp 1252
Page de codes activés: 1252

C:\Users\Koala\Appdata\Roaming\m4ng> "C:\PROGRA~1\m4ng_v5\system\MP4box.exe"
-cat "E:\OUT_HA~1.MP4" -cat "E:\OUT_HA~2.MP4" -cat "E:\OUT_HA~3.MP4"
"E:\OUT_Hannibal.mp4"
Unknow input file type.
Error appending E:\OUT_HA~1.MP4 : Requested URL is not valid or cannot be found

C:\Users\Koala\Appdata\Roaming\m4ng> pause

Appuyez sur une touche pour continuer.

Voici le contenu du fichier M4ng_Log.txt

30/06 14:28:43 *** m4ng [ 5.0.2.0028 #16 - [exp 31/12/15] ]
30/06 14:28:43 *** shutdown_off ***
30/06 14:28:43 =============================
30/06 14:28:43 1 Conversion(s) -- m4ng v5
30/06 14:28:43 =============================
30/06 14:28:43 01 : HANNIBAL.TS
30/06 14:28:43 =============================
30/06 14:28:43 01/01 - conversion : HANNIBAL.TS
30/06 14:28:43 part : 1 - 32421 / 83496
30/06 14:28:43 OUT_Hannibal_m4mbo1.mp4
30/06 14:28:45 Encodage en cours :: Passe 1/2
30/06 14:45:51 Encodage en cours :: Passe 2/2
30/06 15:13:02 conversion OK
30/06 15:13:02 ==========
30/06 15:13:02 part : 2 - 92846 / 144371
30/06 15:13:02 OUT_Hannibal_m4mbo2.mp4
30/06 15:13:03 Encodage en cours :: Passe 1/2
30/06 15:34:27 Encodage en cours :: Passe 2/2
30/06 15:58:35 conversion OK
30/06 15:58:35 ==========
30/06 15:58:35 part : 3 - 153746 / 213971
30/06 15:58:35 OUT_Hannibal_m4mbo3.mp4
30/06 15:58:37 Encodage en cours :: Passe 1/2
30/06 16:31:20 Encodage en cours :: Passe 2/2
30/06 17:09:55 conversion OK
30/06 17:09:55 ==========
30/06 17:10:36 MUX :: Ok
30/06 17:10:36 ---
30/06 17:26:05 --- m4ng closed ---


Merci de votre aide
Koala
 
Messages: 89
Inscription: 08 Mar 2011

Messagepar Subbat » Jeu 30 Juin, 2016 22:11

Salut,

Je ne comprend pas bien pourquoi chez toi, le fichier M4mbo_debug_mux.bat est écrit en "nom court"... nous avons pourtant la même version de m4ng...

Essaie de remplacer
Code: Tout sélectionner
chcp 1252
"C:\PROGRA~1\m4ng_v5\system\MP4box.exe" -cat "E:\OUT_HA~1.MP4" -cat "E:\OUT_HA~2.MP4" -cat "E:\OUT_HA~3.MP4" "E:\OUT_Hannibal.mp4"
pause


Par
Code: Tout sélectionner
chcp 1252
"C:\PROGRA~1\m4ng_v5\system\MP4box.exe" -cat "E:\OUT_Hannibal_m4mbo1.mp4" -cat "E:\OUT_Hannibal_m4mbo2.mp4" -cat "E:\OUT_Hannibal_m4mbo3.mp4" "E:\OUT_Hannibal.mp4"
pause
Image
Image Image
Avatar de l’utilisateur
Subbat
Administrateur
Administrateur
 
Messages: 8400
Inscription: 11 Déc 2008
Localisation: Quelque part... dans le centre de la France...

Messagepar Koala » Ven 01 Juil, 2016 13:12

J'ai refait un essai en modifiant le fichier debug avant la conversion.


Le résultat est le même et le fichier debug, s'est modifié comme avant.

Pourtant les blocs correspondant au découpage de la vidéo se nomment bien "Hannibal_m4mbo1(2-3).mp4"
Koala
 
Messages: 89
Inscription: 08 Mar 2011

Messagepar Subbat » Dim 03 Juil, 2016 22:42

Ah bah pardon... je n'avais pas expliqué jusqu'au bout... après avoir modifier le fichier debug, il faut le lancer à la main, sans repasser par m4ng... tu le modifies comme indiqué, tu l'enregistres, et double cliques dessus pour le lancer afin de voir si tu as les mêmes erreurs que précédemment...
Image
Image Image
Avatar de l’utilisateur
Subbat
Administrateur
Administrateur
 
Messages: 8400
Inscription: 11 Déc 2008
Localisation: Quelque part... dans le centre de la France...

Messagepar Koala » Lun 04 Juil, 2016 17:42

Le problème est qu'un fois que M4 a effectué le mixage, il efface les fichiers des 3 blocs(m4mbo1, 2 et 3)
Donc je ne peux rien faire.
Koala
 
Messages: 89
Inscription: 08 Mar 2011

Messagepar Subbat » Mer 06 Juil, 2016 8:16

Ah oui c'est vrai... donc sans doute pour ça le message d'erreur quand tu as lancé le batch à la main au départ... et donc rien à voir avec le système de nom en 8.3 ou pas...

La j'avoue que je ne comprends pas ce qui se passe... vu que tout semble se passer normalement vu le LOG de m4ng... les 3 morceaux sont bien collés ensemble... Franchement je sèche...

En revanche pour ton problème de taille finale, ça ne m'étonne pas... m4ng calcule la taille finale de la vidéo en fonction de la durée de la source et du débit donné... mais comme ensuite tu enlèves des morceaux via m4mbo, forcément la taille sera moins importante...
Image
Image Image
Avatar de l’utilisateur
Subbat
Administrateur
Administrateur
 
Messages: 8400
Inscription: 11 Déc 2008
Localisation: Quelque part... dans le centre de la France...

Messagepar Koala » Mer 13 Juil, 2016 15:48

1/ si je supprime l'excédent avant le début de la vidéo et l'excédent à la fin, pas de problème, mon fichier final correspond à la taille demandée au départ.
2/ si je supprime une seule publicité pendant le film, item,le fichier final correspond bien à la taille demandée et la vidéo est bonne.
3/ si j'effectue 2 suppressions de publicité pendant la vidéo, la taille finale correspond à la taille demandée au départ, moins la vidéo des blocs 1 et 2, donc seulement à la taille de la vidéo du bloc 3 et de la totalité du son de ce film.

Suite à tous mes essais, il apparaît que les vidéos des blocs 1 et 2 , bien qu'elles aient été converties, ne sont pas prises en compte au moment du mixage final.
Pourrait-il y avoir une mauvaise interprétation des fichier m4mambo1 et m4mambo2 à ce moment.

Merci de vos réponses
Koala
 
Messages: 89
Inscription: 08 Mar 2011

Messagepar Subbat » Ven 15 Juil, 2016 8:34

On peut essayer un truc pour voir étape par étape ce qu'il se passe...

Tu vas dans le dossier système de m4ng et tu renommes le fichier qui s'appelle MP4box.exe en _MP4box.exe par exemple.

Ainsi, une fois que m4ng aura encodé les différentes parties (OUT_Hannibal_m4mbo1.mp4 et suivantes), quand il voudra muxer les 3 parties, m4ng ne pourra pas le faire dans la mesure où il ne trouvera MP4box.exe pour le faire... et si je ne me trompes pas, les 3 parties ne seront pas effacées, vu que la chaine aura été interrompu... enfin j'espère...

Ca va nous permettre d'analyser les 3 parties. Tu fais une analyse de chacune d'elle que tu postes ici pour voir...

Ensuite, tu renommes MP4box.exe comme il était au départ, tu vas dans le dossier de travail de m4ng et tu lances le M4mbo_debug_mux.bat. Tu devrais avoir ton fichier final... tu regardes s'il est bon où si comme maintenant tu n'as pas tout, et tu nous met pour lui aussi une analyse ici...
Image
Image Image
Avatar de l’utilisateur
Subbat
Administrateur
Administrateur
 
Messages: 8400
Inscription: 11 Déc 2008
Localisation: Quelque part... dans le centre de la France...

Messagepar Koala » Sam 16 Juil, 2016 15:35

Nouvel essai avec une autre vidéo.

Modification du fichier MP4box.exe en _MP4box.exe

Fichier original vidéo: flingueuses.ts 4345865ko 2h 19m 48s

Démarrage de M4, petite fenêtre me disant qu’il manque 1 module (normal, on a modifié MP4box.exe)
Sélection fichier ‘flingueuses.ts’ OK
Fichier d’analyse OK
Analyse graphStudio OK
Sélection des paramètrres Codec X264
Résolution 1080x608
Conteneur MP4
Débit 1000
Lancement ‘Prévisualisation’ OK
Lancement m4mbo OK
Suppression excédent début, suppression 3 publicités, suppression excédent fin : OK
Lancement conversion, OK
Pas de muxage (Normal)

Voici les 3 fichiers
OUT_flingueuses_m4mbo1.mp4 370340ko 44minutes35
OUT_flingueuses_m4mbo2.mp4 188492ko 22minutes42
OUT_flingueuses_m4mbo3.mp4 336361ko 40minutes31

Chaque fichier est nickel pour la vidéo et le son individuellement

1° fichier analysé par M4 :
Taille 361,7 MiB extension MP4
Vidéo :
Codec : AVC
Débit : 1000 Kbps (00h44 m35s)
Nombre d’images 66875
Fréquence d’image 25.000
Résolution 1080x608 (16/9)
Audio 1/1 :
Codec : MPEG Audio
Débit : 128 kbps (2ch)
Délai : 0 ms
Fréquence : 48,0 Khz
Langue : French

Analyse GraphStudio OK

Item pour les 2 autres blocs avec les variations de taille et de temps.

Dans le fichier m4mbo_debug_mux.bat, j’ai toujours les titres en raccourci :

chcp 1252
"" -cat "E:\OUT_FL~1.MP4" -cat "E:\OUT_FL~2.MP4" -cat "E:\OUT_FL~3.MP4" "E:\OUT_flingueuses.mp4"
Pause

Remodification de MP4box.exe à l'original

Si je clique sur m4mbo_debug_mux.bat, la fenêtre suivante s’affiche :

C:\Users\Koala\AppData\Roaming\m4ng>chcp 1252
Page de codes active : 1252

C:\Users\Koala\AppData\Roaming\m4ng>"" -cat "E:\OUT_FL~1.MP4" -cat "E:\OUT_FL~2
.MP4" -cat "E:\OUT_FL~3.MP4" "E:\OUT_flingueuses.mp4"
'""' n’est pas reconnu en tant que commande interne
ou externe, un programme exécutable ou un fichier de commandes.

C:\Users\Koala\AppData\Roaming\m4ng>pause
Appuyez sur une touche pour continuer...

Apparemment ce fichier ne peut être lancé qu'à partir du programme.
Je ne peux pas lancer le muxage.

J'ai tenté de recoller les 3 blocs avec
''(Clé anglaise) Coller des parties de vidéos'' comme vous m'aviez indiqué au début,
même résultat, pas de vidéos des blocs 1 et 2, bloc 3 et son OK

Merci de votre patience.
Koala
 
Messages: 89
Inscription: 08 Mar 2011

Messagepar Subbat » Mar 19 Juil, 2016 10:36

Salut,
J'aurais voulu que tu me mettes les analyses complètes de chaque morceau et pas seulement un extrait d'un seul...

Pour le m4mbo_debug_mux.bat je vois le problème... vu que pour m4ng MP4box était absent, il n'a pas indiqué le chemin de ce dernier dans le batch...

Il faut donc juste que tu ajoutes, entre les guillemets qui se trouve juste après C:\Users\Koala\AppData\Roaming\m4ng> la chose suivante : C:\PROGRA~1\m4ng_v5\system\MP4box.exe

Mais si quand tu colles avec l'outil de m4ng ça ne fonctionne pas, çà m'étonnerait que ça marche mieux... C'est pourquoi je voulais l'analyse complète de chaque morceau pour voir ce qui ne va pas... Néanmoins, modifies le m4mbo_bebug_mux.bat et lance le pour voir ce que ça fait et s'il n'y a pas de message particulier, des lignes en rouge par exemple... regarde la progression et dis nous si tu vois des messages particuliers...
Image
Image Image
Avatar de l’utilisateur
Subbat
Administrateur
Administrateur
 
Messages: 8400
Inscription: 11 Déc 2008
Localisation: Quelque part... dans le centre de la France...

Messagepar Koala » Mar 19 Juil, 2016 14:51

Ce que j'ai joint est l'analyse dans la partie gauche de m4 lorsque l'on sélectionne une vidéo.

Dois-je mettre l'analyse complète faite avec:

(?) Editer analyse complète (médiainfo + ffmpeginfo)
Koala
 
Messages: 89
Inscription: 08 Mar 2011

Messagepar Subbat » Mar 19 Juil, 2016 14:56

Oui c'est ça... mais tu ne copie ici que l'analyse mediainfo pour chaque fichier
Image
Image Image
Avatar de l’utilisateur
Subbat
Administrateur
Administrateur
 
Messages: 8400
Inscription: 11 Déc 2008
Localisation: Quelque part... dans le centre de la France...

Messagepar Koala » Mer 20 Juil, 2016 9:28

Voici les fichiers :

flingueuses_m4mbo1

General
Count : 322
Count of stream of this kind : 1
Kind of stream : General
Kind of stream : General
Stream identifier : 0
Count of video streams : 1
Count of audio streams : 1
Video_Format_List : AVC
Video_Format_WithHint_List : AVC
Codecs Video : AVC
Audio_Format_List : MPEG Audio
Audio_Format_WithHint_List : MPEG Audio
Audio codecs : MPEG-1 Audio layer 3
Audio_Language_List : French
Complete name : E:\OUT_FL~1.MP4
Folder name : E:
File name : OUT_FL~1
File extension : MP4
Format : MPEG-4
Format : MPEG-4
Format/Extensions usually used : mp4 m4v m4a m4b m4p 3gpp 3gp 3gpp2 3g2 k3g jpm jpx mqv ismv isma f4v
Commercial name : MPEG-4
Format profile : Base Media
Internet media type : video/mp4
Codec ID : isom
Codec ID : isom (isom/iso2/avc1/mp41)
Codec ID/Url : http://www.apple.com/quicktime/download/standalone.html
CodecID_Compatible : isom/iso2/avc1/mp41
Codec : MPEG-4
Codec : MPEG-4
Codec/Extensions usually used : mp4 m4v m4a m4b m4p 3gpp 3gp 3gpp2 3g2 k3g jpm jpx mqv ismv isma f4v
File size : 379227277
File size : 362 MiB
File size : 362 MiB
File size : 362 MiB
File size : 362 MiB
File size : 361.7 MiB
Duration : 2675024
Duration : 44mn 35s
Duration : 44mn 35s 24ms
Duration : 44mn 35s
Duration : 00:44:35.024
Duration : 00:44:35:00
Duration : 00:44:35.024 (00:44:35:00)
Overall bit rate : 1134128
Overall bit rate : 1 134 Kbps
Frame rate : 25.000
Frame rate : 25.000 fps
Frame count : 66875
Stream size : 1843130
Stream size : 1.76 MiB (0%)
Stream size : 2 MiB
Stream size : 1.8 MiB
Stream size : 1.76 MiB
Stream size : 1.758 MiB
Stream size : 1.76 MiB (0%)
Proportion of this stream : 0.00486
HeaderSize : 40
DataSize : 377384155
FooterSize : 1843082
IsStreamable : No
File creation date : UTC 2016-07-15 13:29:03.479
File creation date (local) : 2016-07-15 15:29:03.479
File last modification date : UTC 2016-07-15 14:22:11.500
File last modification date (local) : 2016-07-15 16:22:11.500
Writing application : Lavf57.25.100
Writing application : Lavf57.25.100

Video
Count : 332
Count of stream of this kind : 1
Kind of stream : Video
Kind of stream : Video
Stream identifier : 0
StreamOrder : 0
ID : 1
ID : 1
Format : AVC
Format/Info : Advanced Video Codec
Format/Url : http://developers.videolan.org/x264.html
Commercial name : AVC
Format profile : High@L3.1
Format settings : CABAC / 4 Ref Frames
Format settings, CABAC : Yes
Format settings, CABAC : Yes
Format settings, ReFrames : 4
Format settings, ReFrames : 4 frames
Internet media type : video/H264
Codec ID : avc1
Codec ID/Info : Advanced Video Coding
Codec ID/Url : http://www.apple.com/quicktime/download/standalone.html
Codec : AVC
Codec : AVC
Codec/Family : AVC
Codec/Info : Advanced Video Codec
Codec/Url : http://developers.videolan.org/x264.html
Codec/CC : avc1
Codec profile : High@L3.1
Codec settings : CABAC / 4 Ref Frames
Codec settings, CABAC : Yes
Codec_Settings_RefFrames : 4
Duration : 2675000
Duration : 44mn 35s
Duration : 44mn 35s 0ms
Duration : 44mn 35s
Duration : 00:44:35.000
Duration : 00:44:35:00
Duration : 00:44:35.000 (00:44:35:00)
Bit rate : 1000000
Bit rate : 1 000 Kbps
Width : 1080
Width : 1 080 pixels
Height : 608
Height : 608 pixels
Stored_Width : 1088
Sampled_Width : 1080
Sampled_Height : 608
Pixel aspect ratio : 1.001
Display aspect ratio : 1.778
Display aspect ratio : 16:9
Rotation : 0.000
Frame rate mode : CFR
Frame rate mode : Constant
FrameRate_Mode_Original : VFR
Frame rate : 25.000
Frame rate : 25.000 fps
Frame count : 66875
Resolution : 8
Resolution : 8 bits
Colorimetry : 4:2:0
Color space : YUV
Chroma subsampling : 4:2:0
Bit depth : 8
Bit depth : 8 bits
Scan type : Progressive
Scan type : Progressive
Interlacement : PPF
Interlacement : Progressive
Bits/(Pixel*Frame) : 0.061
Stream size : 334584275
Stream size : 319 MiB (88%)
Stream size : 319 MiB
Stream size : 319 MiB
Stream size : 319 MiB
Stream size : 319.1 MiB
Stream size : 319 MiB (88%)
Proportion of this stream : 0.88228
Writing library : x264 - core 148 r2665 a01e339
Writing library : x264 core 148 r2665 a01e339
Encoded_Library_Name : x264
Encoded_Library_Version : core 148 r2665 a01e339
Encoding settings : cabac=1 / ref=3 / deblock=1:0:0 / analyse=0x3:0x113 / me=hex / subme=7 / psy=1 / psy_rd=1.00:0.00 / mixed_ref=1 / me_range=16 / chroma_me=1 / trellis=1 / 8x8dct=1 / cqm=0 / deadzone=21,11 / fast_pskip=1 / chroma_qp_offset=-2 / threads=3 / lookahead_threads=1 / sliced_threads=0 / nr=0 / decimate=1 / interlaced=0 / bluray_compat=0 / constrained_intra=0 / bframes=3 / b_pyramid=2 / b_adapt=1 / b_bias=0 / direct=1 / weightb=1 / open_gop=0 / weightp=2 / keyint=250 / keyint_min=25 / scenecut=40 / intra_refresh=0 / rc_lookahead=40 / rc=2pass / mbtree=1 / bitrate=1000 / ratetol=1.0 / qcomp=0.60 / qpmin=0 / qpmax=69 / qpstep=4 / cplxblur=20.0 / qblur=0.5 / ip_ratio=1.40 / aq=1:1.00

Audio
Count : 272
Count of stream of this kind : 1
Kind of stream : Audio
Kind of stream : Audio
Stream identifier : 0
StreamOrder : 1
ID : 2
ID : 2
Format : MPEG Audio
Commercial name : MPEG Audio
Format version : Version 1
Format profile : Layer 3
Format settings : Joint stereo / MS Stereo
Mode : Joint stereo
Mode extension : MS Stereo
Internet media type : audio/mpeg
Codec ID : 6B
Codec : MPA1L3
Codec : MPEG-1 Audio layer 3
Codec/Family : MPEG-A
Codec/CC : 6B
Codec profile : Joint stereo
Duration : 2675024
Duration : 44mn 35s
Duration : 44mn 35s 24ms
Duration : 44mn 35s
Duration : 00:44:35.024
Duration : 00:44:35.024
Bit rate mode : CBR
Bit rate mode : Constant
Bit rate : 128000
Bit rate : 128 Kbps
Channel(s) : 2
Channel(s) : 2 channels
Sampling rate : 48000
Sampling rate : 48.0 KHz
Samples count : 128401152
Frame count : 111458
Compression mode : Lossy
Compression mode : Lossy
Stream size : 42799872
Stream size : 40.8 MiB (11%)
Stream size : 41 MiB
Stream size : 41 MiB
Stream size : 40.8 MiB
Stream size : 40.82 MiB
Stream size : 40.8 MiB (11%)
Proportion of this stream : 0.11286
Language : fr
Language : French
Language : French
Language : fr
Language : fra
Language : fr
Default : Yes
Default : Yes
Alternate group : 1
Alternate group : 1

flingueuse_m4mbo2

General
Count : 322
Count of stream of this kind : 1
Kind of stream : General
Kind of stream : General
Stream identifier : 0
Count of video streams : 1
Count of audio streams : 1
Video_Format_List : AVC
Video_Format_WithHint_List : AVC
Codecs Video : AVC
Audio_Format_List : MPEG Audio
Audio_Format_WithHint_List : MPEG Audio
Audio codecs : MPEG-1 Audio layer 3
Audio_Language_List : French
Complete name : E:\OUT_FL~2.MP4
Folder name : E:
File name : OUT_FL~2
File extension : MP4
Format : MPEG-4
Format : MPEG-4
Format/Extensions usually used : mp4 m4v m4a m4b m4p 3gpp 3gp 3gpp2 3g2 k3g jpm jpx mqv ismv isma f4v
Commercial name : MPEG-4
Format profile : Base Media
Internet media type : video/mp4
Codec ID : isom
Codec ID : isom (isom/iso2/avc1/mp41)
Codec ID/Url : http://www.apple.com/quicktime/download/standalone.html
CodecID_Compatible : isom/iso2/avc1/mp41
Codec : MPEG-4
Codec : MPEG-4
Codec/Extensions usually used : mp4 m4v m4a m4b m4p 3gpp 3gp 3gpp2 3g2 k3g jpm jpx mqv ismv isma f4v
File size : 193015373
File size : 184 MiB
File size : 184 MiB
File size : 184 MiB
File size : 184 MiB
File size : 184.1 MiB
Duration : 1362024
Duration : 22mn 42s
Duration : 22mn 42s 24ms
Duration : 22mn 42s
Duration : 00:22:42.024
Duration : 00:22:42:00
Duration : 00:22:42.024 (00:22:42:00)
Overall bit rate : 1133697
Overall bit rate : 1 134 Kbps
Frame rate : 25.000
Frame rate : 25.000 fps
Frame count : 34050
Stream size : 950206
Stream size : 928 KiB (0%)
Stream size : 928 KiB
Stream size : 928 KiB
Stream size : 928 KiB
Stream size : 927.9 KiB
Stream size : 928 KiB (0%)
Proportion of this stream : 0.00492
HeaderSize : 40
DataSize : 192065175
FooterSize : 950158
IsStreamable : No
File creation date : UTC 2016-07-15 14:22:11.547
File creation date (local) : 2016-07-15 16:22:11.547
File last modification date : UTC 2016-07-15 15:06:19.340
File last modification date (local) : 2016-07-15 17:06:19.340
Writing application : Lavf57.25.100
Writing application : Lavf57.25.100

Video
Count : 332
Count of stream of this kind : 1
Kind of stream : Video
Kind of stream : Video
Stream identifier : 0
StreamOrder : 0
ID : 1
ID : 1
Format : AVC
Format/Info : Advanced Video Codec
Format/Url : http://developers.videolan.org/x264.html
Commercial name : AVC
Format profile : High@L3.1
Format settings : CABAC / 4 Ref Frames
Format settings, CABAC : Yes
Format settings, CABAC : Yes
Format settings, ReFrames : 4
Format settings, ReFrames : 4 frames
Internet media type : video/H264
Codec ID : avc1
Codec ID/Info : Advanced Video Coding
Codec ID/Url : http://www.apple.com/quicktime/download/standalone.html
Codec : AVC
Codec : AVC
Codec/Family : AVC
Codec/Info : Advanced Video Codec
Codec/Url : http://developers.videolan.org/x264.html
Codec/CC : avc1
Codec profile : High@L3.1
Codec settings : CABAC / 4 Ref Frames
Codec settings, CABAC : Yes
Codec_Settings_RefFrames : 4
Duration : 1362000
Duration : 22mn 42s
Duration : 22mn 42s 0ms
Duration : 22mn 42s
Duration : 00:22:42.000
Duration : 00:22:42:00
Duration : 00:22:42.000 (00:22:42:00)
Bit rate : 1000000
Bit rate : 1 000 Kbps
Width : 1080
Width : 1 080 pixels
Height : 608
Height : 608 pixels
Stored_Width : 1088
Sampled_Width : 1080
Sampled_Height : 608
Pixel aspect ratio : 1.001
Display aspect ratio : 1.778
Display aspect ratio : 16:9
Rotation : 0.000
Frame rate mode : CFR
Frame rate mode : Constant
FrameRate_Mode_Original : VFR
Frame rate : 25.000
Frame rate : 25.000 fps
Frame count : 34050
Resolution : 8
Resolution : 8 bits
Colorimetry : 4:2:0
Color space : YUV
Chroma subsampling : 4:2:0
Bit depth : 8
Bit depth : 8 bits
Scan type : Progressive
Scan type : Progressive
Interlacement : PPF
Interlacement : Progressive
Bits/(Pixel*Frame) : 0.061
Stream size : 170272783
Stream size : 162 MiB (88%)
Stream size : 162 MiB
Stream size : 162 MiB
Stream size : 162 MiB
Stream size : 162.4 MiB
Stream size : 162 MiB (88%)
Proportion of this stream : 0.88217
Writing library : x264 - core 148 r2665 a01e339
Writing library : x264 core 148 r2665 a01e339
Encoded_Library_Name : x264
Encoded_Library_Version : core 148 r2665 a01e339
Encoding settings : cabac=1 / ref=3 / deblock=1:0:0 / analyse=0x3:0x113 / me=hex / subme=7 / psy=1 / psy_rd=1.00:0.00 / mixed_ref=1 / me_range=16 / chroma_me=1 / trellis=1 / 8x8dct=1 / cqm=0 / deadzone=21,11 / fast_pskip=1 / chroma_qp_offset=-2 / threads=3 / lookahead_threads=1 / sliced_threads=0 / nr=0 / decimate=1 / interlaced=0 / bluray_compat=0 / constrained_intra=0 / bframes=3 / b_pyramid=2 / b_adapt=1 / b_bias=0 / direct=1 / weightb=1 / open_gop=0 / weightp=2 / keyint=250 / keyint_min=25 / scenecut=40 / intra_refresh=0 / rc_lookahead=40 / rc=2pass / mbtree=1 / bitrate=1000 / ratetol=1.0 / qcomp=0.60 / qpmin=0 / qpmax=69 / qpstep=4 / cplxblur=20.0 / qblur=0.5 / ip_ratio=1.40 / aq=1:1.00

Audio
Count : 272
Count of stream of this kind : 1
Kind of stream : Audio
Kind of stream : Audio
Stream identifier : 0
StreamOrder : 1
ID : 2
ID : 2
Format : MPEG Audio
Commercial name : MPEG Audio
Format version : Version 1
Format profile : Layer 3
Format settings : Joint stereo
Mode : Joint stereo
Internet media type : audio/mpeg
Codec ID : 6B
Codec : MPA1L3
Codec : MPEG-1 Audio layer 3
Codec/Family : MPEG-A
Codec/CC : 6B
Codec profile : Joint stereo
Duration : 1362024
Duration : 22mn 42s
Duration : 22mn 42s 24ms
Duration : 22mn 42s
Duration : 00:22:42.024
Duration : 00:22:42.024
Duration_LastFrame : -1
Duration_LastFrame : -1ms
Duration_LastFrame : -1ms
Duration_LastFrame : -1ms
Duration_LastFrame : -00:00:00.001
Bit rate mode : CBR
Bit rate mode : Constant
Bit rate : 128000
Bit rate : 128 Kbps
Channel(s) : 2
Channel(s) : 2 channels
Sampling rate : 48000
Sampling rate : 48.0 KHz
Samples count : 65377152
Frame count : 56751
Compression mode : Lossy
Compression mode : Lossy
Stream size : 21792384
Stream size : 20.8 MiB (11%)
Stream size : 21 MiB
Stream size : 21 MiB
Stream size : 20.8 MiB
Stream size : 20.78 MiB
Stream size : 20.8 MiB (11%)
Proportion of this stream : 0.11290
Language : fr
Language : French
Language : French
Language : fr
Language : fra
Language : fr
Default : Yes
Default : Yes
Alternate group : 1
Alternate group : 1


flingueuses_m4mbo3

General
Count : 322
Count of stream of this kind : 1
Kind of stream : General
Kind of stream : General
Stream identifier : 0
Count of video streams : 1
Count of audio streams : 1
Video_Format_List : AVC
Video_Format_WithHint_List : AVC
Codecs Video : AVC
Audio_Format_List : MPEG Audio
Audio_Format_WithHint_List : MPEG Audio
Audio codecs : MPEG-1 Audio layer 3
Audio_Language_List : French
Complete name : E:\OUT_FL~3.MP4
Folder name : E:
File name : OUT_FL~3
File extension : MP4
Format : MPEG-4
Format : MPEG-4
Format/Extensions usually used : mp4 m4v m4a m4b m4p 3gpp 3gp 3gpp2 3g2 k3g jpm jpx mqv ismv isma f4v
Commercial name : MPEG-4
Format profile : Base Media
Internet media type : video/mp4
Codec ID : isom
Codec ID : isom (isom/iso2/avc1/mp41)
Codec ID/Url : http://www.apple.com/quicktime/download/standalone.html
CodecID_Compatible : isom/iso2/avc1/mp41
Codec : MPEG-4
Codec : MPEG-4
Codec/Extensions usually used : mp4 m4v m4a m4b m4p 3gpp 3gp 3gpp2 3g2 k3g jpm jpx mqv ismv isma f4v
File size : 344433317
File size : 328 MiB
File size : 328 MiB
File size : 328 MiB
File size : 328 MiB
File size : 328.5 MiB
Duration : 2431024
Duration : 40mn 31s
Duration : 40mn 31s 24ms
Duration : 40mn 31s
Duration : 00:40:31.024
Duration : 00:40:31:00
Duration : 00:40:31.024 (00:40:31:00)
Overall bit rate : 1133459
Overall bit rate : 1 133 Kbps
Frame rate : 25.000
Frame rate : 25.000 fps
Frame count : 60775
Stream size : 1690518
Stream size : 1.61 MiB (0%)
Stream size : 2 MiB
Stream size : 1.6 MiB
Stream size : 1.61 MiB
Stream size : 1.612 MiB
Stream size : 1.61 MiB (0%)
Proportion of this stream : 0.00491
HeaderSize : 40
DataSize : 342742807
FooterSize : 1690470
IsStreamable : No
File creation date : UTC 2016-07-15 15:06:19.402
File creation date (local) : 2016-07-15 17:06:19.402
File last modification date : UTC 2016-07-15 16:19:17.831
File last modification date (local) : 2016-07-15 18:19:17.831
Writing application : Lavf57.25.100
Writing application : Lavf57.25.100

Video
Count : 332
Count of stream of this kind : 1
Kind of stream : Video
Kind of stream : Video
Stream identifier : 0
StreamOrder : 0
ID : 1
ID : 1
Format : AVC
Format/Info : Advanced Video Codec
Format/Url : http://developers.videolan.org/x264.html
Commercial name : AVC
Format profile : High@L3.1
Format settings : CABAC / 4 Ref Frames
Format settings, CABAC : Yes
Format settings, CABAC : Yes
Format settings, ReFrames : 4
Format settings, ReFrames : 4 frames
Internet media type : video/H264
Codec ID : avc1
Codec ID/Info : Advanced Video Coding
Codec ID/Url : http://www.apple.com/quicktime/download/standalone.html
Codec : AVC
Codec : AVC
Codec/Family : AVC
Codec/Info : Advanced Video Codec
Codec/Url : http://developers.videolan.org/x264.html
Codec/CC : avc1
Codec profile : High@L3.1
Codec settings : CABAC / 4 Ref Frames
Codec settings, CABAC : Yes
Codec_Settings_RefFrames : 4
Duration : 2431000
Duration : 40mn 31s
Duration : 40mn 31s 0ms
Duration : 40mn 31s
Duration : 00:40:31.000
Duration : 00:40:31:00
Duration : 00:40:31.000 (00:40:31:00)
Bit rate : 1000000
Bit rate : 1 000 Kbps
Width : 1080
Width : 1 080 pixels
Height : 608
Height : 608 pixels
Stored_Width : 1088
Sampled_Width : 1080
Sampled_Height : 608
Pixel aspect ratio : 1.001
Display aspect ratio : 1.778
Display aspect ratio : 16:9
Rotation : 0.000
Frame rate mode : CFR
Frame rate mode : Constant
FrameRate_Mode_Original : VFR
Frame rate : 25.000
Frame rate : 25.000 fps
Frame count : 60775
Resolution : 8
Resolution : 8 bits
Colorimetry : 4:2:0
Color space : YUV
Chroma subsampling : 4:2:0
Bit depth : 8
Bit depth : 8 bits
Scan type : Progressive
Scan type : Progressive
Interlacement : PPF
Interlacement : Progressive
Bits/(Pixel*Frame) : 0.061
Stream size : 303846287
Stream size : 290 MiB (88%)
Stream size : 290 MiB
Stream size : 290 MiB
Stream size : 290 MiB
Stream size : 289.8 MiB
Stream size : 290 MiB (88%)
Proportion of this stream : 0.88216
Writing library : x264 - core 148 r2665 a01e339
Writing library : x264 core 148 r2665 a01e339
Encoded_Library_Name : x264
Encoded_Library_Version : core 148 r2665 a01e339
Encoding settings : cabac=1 / ref=3 / deblock=1:0:0 / analyse=0x3:0x113 / me=hex / subme=7 / psy=1 / psy_rd=1.00:0.00 / mixed_ref=1 / me_range=16 / chroma_me=1 / trellis=1 / 8x8dct=1 / cqm=0 / deadzone=21,11 / fast_pskip=1 / chroma_qp_offset=-2 / threads=3 / lookahead_threads=1 / sliced_threads=0 / nr=0 / decimate=1 / interlaced=0 / bluray_compat=0 / constrained_intra=0 / bframes=3 / b_pyramid=2 / b_adapt=1 / b_bias=0 / direct=1 / weightb=1 / open_gop=0 / weightp=2 / keyint=250 / keyint_min=25 / scenecut=40 / intra_refresh=0 / rc_lookahead=40 / rc=2pass / mbtree=1 / bitrate=1000 / ratetol=1.0 / qcomp=0.60 / qpmin=0 / qpmax=69 / qpstep=4 / cplxblur=20.0 / qblur=0.5 / ip_ratio=1.40 / aq=1:1.00

Audio
Count : 272
Count of stream of this kind : 1
Kind of stream : Audio
Kind of stream : Audio
Stream identifier : 0
StreamOrder : 1
ID : 2
ID : 2
Format : MPEG Audio
Commercial name : MPEG Audio
Format version : Version 1
Format profile : Layer 3
Format settings : Joint stereo / MS Stereo
Mode : Joint stereo
Mode extension : MS Stereo
Internet media type : audio/mpeg
Codec ID : 6B
Codec : MPA1L3
Codec : MPEG-1 Audio layer 3
Codec/Family : MPEG-A
Codec/CC : 6B
Codec profile : Joint stereo
Duration : 2431024
Duration : 40mn 31s
Duration : 40mn 31s 24ms
Duration : 40mn 31s
Duration : 00:40:31.024
Duration : 00:40:31.024
Duration_LastFrame : -9
Duration_LastFrame : -9ms
Duration_LastFrame : -9ms
Duration_LastFrame : -9ms
Duration_LastFrame : -00:00:00.009
Bit rate mode : CBR
Bit rate mode : Constant
Bit rate : 128000
Bit rate : 128 Kbps
Channel(s) : 2
Channel(s) : 2 channels
Sampling rate : 48000
Sampling rate : 48.0 KHz
Samples count : 116689152
Frame count : 101293
Compression mode : Lossy
Compression mode : Lossy
Stream size : 38896512
Stream size : 37.1 MiB (11%)
Stream size : 37 MiB
Stream size : 37 MiB
Stream size : 37.1 MiB
Stream size : 37.09 MiB
Stream size : 37.1 MiB (11%)
Proportion of this stream : 0.11293
Language : fr
Language : French
Language : French
Language : fr
Language : fra
Language : fr
Default : Yes
Default : Yes
Alternate group : 1
Alternate group : 1
Koala
 
Messages: 89
Inscription: 08 Mar 2011

Messagepar Subbat » Mer 20 Juil, 2016 13:53

Bah écoute là je comprends pas bien le problème...

Et donc, la vidéo que donne le batch de collage elle fait quoi exactement ? elle ne contient que la partie 3 ? Tu peux mettre une analyse complète de cette vidéo ?
Image
Image Image
Avatar de l’utilisateur
Subbat
Administrateur
Administrateur
 
Messages: 8400
Inscription: 11 Déc 2008
Localisation: Quelque part... dans le centre de la France...

Messagepar Koala » Jeu 21 Juil, 2016 10:50

Oui, je n'ai que la vidéo du bloc 3, mais le son de tous les blocs.

Voici le fichier médiainfo

General
Count : 322
Count of stream of this kind : 1
Kind of stream : General
Kind of stream : General
Stream identifier : 0
Count of video streams : 1
Count of audio streams : 1
Video_Format_List : AVC
Video_Format_WithHint_List : AVC
Codecs Video : AVC
Audio_Format_List : MPEG Audio
Audio_Format_WithHint_List : MPEG Audio
Audio codecs : MPEG-1 Audio layer 3
Audio_Language_List : French
Complete name : E:\OUT_FL~4.MP4
Folder name : E:
File name : OUT_FL~4
File extension : MP4
Format : MPEG-4
Format : MPEG-4
Format/Extensions usually used : mp4 m4v m4a m4b m4p 3gpp 3gp 3gpp2 3g2 k3g jpm jpx mqv ismv isma f4v
Commercial name : MPEG-4
Format profile : Base Media
Internet media type : video/mp4
Codec ID : isom
Codec ID : isom (isom)
Codec ID/Url : http://www.apple.com/quicktime/download/standalone.html
CodecID_Compatible : isom
Codec : MPEG-4
Codec : MPEG-4
Codec/Extensions usually used : mp4 m4v m4a m4b m4p 3gpp 3gp 3gpp2 3g2 k3g jpm jpx mqv ismv isma f4v
File size : 914126570
File size : 872 MiB
File size : 872 MiB
File size : 872 MiB
File size : 872 MiB
File size : 871.8 MiB
Duration : 6467560
Duration : 1h 47mn
Duration : 1h 47mn 47s 560ms
Duration : 1h 47mn
Duration : 01:47:47.560
Duration : 01:47:47:13
Duration : 01:47:47.560 (01:47:47:13)
Overall bit rate : 1130722
Overall bit rate : 1 131 Kbps
Frame rate : 25.000
Frame rate : 25.000 fps
Frame count : 161688
Stream size : 2008887
Stream size : 1.92 MiB (0%)
Stream size : 2 MiB
Stream size : 1.9 MiB
Stream size : 1.92 MiB
Stream size : 1.916 MiB
Stream size : 1.92 MiB (0%)
Proportion of this stream : 0.00220
HeaderSize : 2001840
DataSize : 912124671
FooterSize : 59
IsStreamable : Yes
Encoded date : UTC 2016-07-20 18:18:31
Tagged date : UTC 2016-07-20 18:18:31
File creation date : UTC 2016-07-20 18:19:27.975
File creation date (local) : 2016-07-20 20:19:27.975
File last modification date : UTC 2016-07-20 18:20:03.223
File last modification date (local) : 2016-07-20 20:20:03.223

Video
Count : 332
Count of stream of this kind : 1
Kind of stream : Video
Kind of stream : Video
Stream identifier : 0
StreamOrder : 0
ID : 1
ID : 1
Format : AVC
Format/Info : Advanced Video Codec
Format/Url : http://developers.videolan.org/x264.html
Commercial name : AVC
Format profile : High@L3.1
Format settings : CABAC / 4 Ref Frames
Format settings, CABAC : Yes
Format settings, CABAC : Yes
Format settings, ReFrames : 4
Format settings, ReFrames : 4 frames
Internet media type : video/H264
Codec ID : avc1
Codec ID/Info : Advanced Video Coding
Codec ID/Url : http://www.apple.com/quicktime/download/standalone.html
Codec : AVC
Codec : AVC
Codec/Family : AVC
Codec/Info : Advanced Video Codec
Codec/Url : http://developers.videolan.org/x264.html
Codec/CC : avc1
Codec profile : High@L3.1
Codec settings : CABAC / 4 Ref Frames
Codec settings, CABAC : Yes
Codec_Settings_RefFrames : 4
Duration : 6467560
Duration : 1h 47mn
Duration : 1h 47mn 47s 560ms
Duration : 1h 47mn
Duration : 01:47:47.560
Duration : 01:47:47:13
Duration : 01:47:47.560 (01:47:47:13)
Source duration : 6467608
Source duration : 1h 47mn
Source duration : 1h 47mn 47s 608ms
Source duration : 1h 47mn
Source duration : 01:47:47.608
Bit rate : 1000000
Bit rate : 1 000 Kbps
Maximum bit rate : 4793328
Maximum bit rate : 4 793 Kbps
Width : 1080
Width : 1 080 pixels
Height : 608
Height : 608 pixels
Stored_Width : 1088
Sampled_Width : 1080
Sampled_Height : 608
Pixel aspect ratio : 1.001
Display aspect ratio : 1.778
Display aspect ratio : 16:9
Rotation : 0.000
Frame rate mode : VFR
Frame rate mode : Variable
Frame rate : 25.000
Frame rate : 25.000 fps
Minimum frame rate : 15.625
Minimum frame rate : 15.625 fps
Maximum frame rate : 25.000
Maximum frame rate : 25.000 fps
Frame count : 161688
Source frame count : 161689
Resolution : 8
Resolution : 8 bits
Colorimetry : 4:2:0
Color space : YUV
Chroma subsampling : 4:2:0
Bit depth : 8
Bit depth : 8 bits
Scan type : Progressive
Scan type : Progressive
Interlacement : PPF
Interlacement : Progressive
Bits/(Pixel*Frame) : 0.061
Stream size : 808637363
Stream size : 771 MiB (88%)
Stream size : 771 MiB
Stream size : 771 MiB
Stream size : 771 MiB
Stream size : 771.2 MiB
Stream size : 771 MiB (88%)
Proportion of this stream : 0.88460
Source stream size : 808642807
Source stream size : 771 MiB (88%)
Source stream size : 771 MiB
Source stream size : 771 MiB
Source stream size : 771 MiB
Source stream size : 771.2 MiB
Source stream size : 771 MiB (88%)
Source_StreamSize_Proportion : 0.88461
Writing library : x264 - core 148 r2665 a01e339
Writing library : x264 core 148 r2665 a01e339
Encoded_Library_Name : x264
Encoded_Library_Version : core 148 r2665 a01e339
Encoding settings : cabac=1 / ref=3 / deblock=1:0:0 / analyse=0x3:0x113 / me=hex / subme=7 / psy=1 / psy_rd=1.00:0.00 / mixed_ref=1 / me_range=16 / chroma_me=1 / trellis=1 / 8x8dct=1 / cqm=0 / deadzone=21,11 / fast_pskip=1 / chroma_qp_offset=-2 / threads=3 / lookahead_threads=1 / sliced_threads=0 / nr=0 / decimate=1 / interlaced=0 / bluray_compat=0 / constrained_intra=0 / bframes=3 / b_pyramid=2 / b_adapt=1 / b_bias=0 / direct=1 / weightb=1 / open_gop=0 / weightp=2 / keyint=250 / keyint_min=25 / scenecut=40 / intra_refresh=0 / rc_lookahead=40 / rc=2pass / mbtree=1 / bitrate=1000 / ratetol=1.0 / qcomp=0.60 / qpmin=0 / qpmax=69 / qpstep=4 / cplxblur=20.0 / qblur=0.5 / ip_ratio=1.40 / aq=1:1.00
Tagged date : UTC 2016-07-20 18:19:27

Audio
Count : 272
Count of stream of this kind : 1
Kind of stream : Audio
Kind of stream : Audio
Stream identifier : 0
StreamOrder : 1
ID : 2
ID : 2
Format : MPEG Audio
Commercial name : MPEG Audio
Format version : Version 1
Format profile : Layer 3
Format settings : Joint stereo / MS Stereo
Mode : Joint stereo
Mode extension : MS Stereo
Internet media type : audio/mpeg
Codec ID : 6B
Codec : MPA1L3
Codec : MPEG-1 Audio layer 3
Codec/Family : MPEG-A
Codec/CC : 6B
Codec profile : Joint stereo
Duration : 6467560
Duration : 1h 47mn
Duration : 1h 47mn 47s 560ms
Duration : 1h 47mn
Duration : 01:47:47.560
Duration : 01:47:47.560
Source duration : 6467648
Source duration : 1h 47mn
Source duration : 1h 47mn 47s 648ms
Source duration : 1h 47mn
Source duration : 01:47:47.648
Bit rate mode : CBR
Bit rate mode : Constant
Bit rate : 128000
Bit rate : 128 Kbps
Maximum bit rate : 132096
Maximum bit rate : 132 Kbps
Channel(s) : 2
Channel(s) : 2 channels
Sampling rate : 48000
Sampling rate : 48.0 KHz
Samples count : 310442880
Frame count : 269480
Source frame count : 269484
Compression mode : Lossy
Compression mode : Lossy
Stream size : 103480320
Stream size : 98.7 MiB (11%)
Stream size : 99 MiB
Stream size : 99 MiB
Stream size : 98.7 MiB
Stream size : 98.69 MiB
Stream size : 98.7 MiB (11%)
Proportion of this stream : 0.11320
Source stream size : 103481856
Source stream size : 98.7 MiB (11%)
Source stream size : 99 MiB
Source stream size : 99 MiB
Source stream size : 98.7 MiB
Source stream size : 98.69 MiB
Source stream size : 98.7 MiB (11%)
Source_StreamSize_Proportion : 0.11320
Language : fr
Language : French
Language : French
Language : fr
Language : fra
Language : fr
Default : Yes
Default : Yes
Alternate group : 1
Alternate group : 1
Tagged date : UTC 2016-07-20 18:19:27


C'est comme si la vidéo des blocs 1 et 2, n'était pas ajoutée au moment du muxage
Koala
 
Messages: 89
Inscription: 08 Mar 2011

Messagepar Subbat » Jeu 21 Juil, 2016 15:17

Tu es sur que ce serait pas un problème de lecteur là... Parce que l'analyse de la vidéo finale donne bien la taille de la somme des 3 morceaux...

Tu utilises quel logiciel pour la lecture ? Tu as essayé avec plusieurs ? Genre VLC, MPC-HC ?
Image
Image Image
Avatar de l’utilisateur
Subbat
Administrateur
Administrateur
 
Messages: 8400
Inscription: 11 Déc 2008
Localisation: Quelque part... dans le centre de la France...

Messagepar Koala » Ven 22 Juil, 2016 7:51

Oui, plusieurs lecteur, mais toujours le même problème, pas de vidéo des blocs 1 et 2.

Ecran gris avec parfois des trainées de couleur, et vidéo nickel dès que l'on arrive au bloc 3.
J'ai même supprimé VLC pendant une conversion pour voir si il n'y avait pas erreur entre les codecs, même résultat.
Je pense que si cela provenait du lecteur, j'aurai le problème avant la conversion aussi.
Si je ne supprime pas les pubs pendant le film, la vidéo finale est nickel.
Dès que je supprime les pubs il y a ce problème.
Koala
 
Messages: 89
Inscription: 08 Mar 2011

Messagepar Subbat » Ven 22 Juil, 2016 18:18

Et tu as essayé avec quels lecteurs ?
En tout cas une chose est sur, les 3 vidéos y sont dans la vidéos finale... A mon avis c'est soit un problème de lecteur, soit un problème de carte graphique du PC, soit je ne vois pas... et je ne comprend pas... puisque les 3 morceaux individuellement sont lisibles, qu'ils ont les mêmes caractéristiques...

Ah tiens essayons un truc... remuxe la vidéo finale dans un mkv pour voir si elle sera lisible...
Image
Image Image
Avatar de l’utilisateur
Subbat
Administrateur
Administrateur
 
Messages: 8400
Inscription: 11 Déc 2008
Localisation: Quelque part... dans le centre de la France...

Messagepar pepsilite » Dim 31 Juil, 2016 21:58

Bon, je débarque en route, 4 pages de posts, ça fait beaucoup, quelqu'un peut résumer SVP? ;)
05/07/15 m4ng v5 est disponible au téléchargement en version finale : m4ng v5
Avatar de l’utilisateur
pepsilite
The Grinch
The Grinch
 
Messages: 22974
Inscription: 03 Fév 2007
Localisation: Chez moi le plus possible ...

Messagepar Subbat » Lun 01 Aoû, 2016 16:04

Hello :D

Notre ami utilise m4mbo en mode autonome. Son problème est que dès lors qu'il y a plus de 2 morceaux à assembler, 3 dans son cas, sur la vidéo finale, il n'a que le son pour les parties 1 et 2 (avec écran gris), puis audio et vidéo à partir de la partie 3...

Et pourtant les 3 parties prises individuellement sont OK...

J'ai fait un test chez moi et je n'ai pas ce soucis...
Image
Image Image
Avatar de l’utilisateur
Subbat
Administrateur
Administrateur
 
Messages: 8400
Inscription: 11 Déc 2008
Localisation: Quelque part... dans le centre de la France...

Messagepar pepsilite » Mar 02 Aoû, 2016 20:55

Ok, je viens de tester, pas de souci non plus mais comment notre ami peut-il visionner les 3 parties, elles sont automatiquement effacées après le mux final par m4ng?
05/07/15 m4ng v5 est disponible au téléchargement en version finale : m4ng v5
Avatar de l’utilisateur
pepsilite
The Grinch
The Grinch
 
Messages: 22974
Inscription: 03 Fév 2007
Localisation: Chez moi le plus possible ...

Messagepar Subbat » Mar 02 Aoû, 2016 21:25

Il devait les regarder une a une pendant que m4ng encodait la partie suivante...
Et ensuite je lui avais demandé de renommer mp4box.exe pour couper la chaine de m4ng afin qu'il me fasse des analyse de chaque morceau... Il a aussi pu les tester à ce moment là...
Image
Image Image
Avatar de l’utilisateur
Subbat
Administrateur
Administrateur
 
Messages: 8400
Inscription: 11 Déc 2008
Localisation: Quelque part... dans le centre de la France...

Messagepar pepsilite » Jeu 04 Aoû, 2016 15:53

Ah ok, et s'il fait l'encodage entier d'un coup, tout est bon? Parce que l'encodage par partie c'est comme l'encodage entier mais "limité" au début ou à la fin, il n'y a pas de différence fondamentale. Vraiment bizarre ce truc.
(@Ducke, j'ai corrigé le texte du bouton "Reset m4mbo".)
05/07/15 m4ng v5 est disponible au téléchargement en version finale : m4ng v5
Avatar de l’utilisateur
pepsilite
The Grinch
The Grinch
 
Messages: 22974
Inscription: 03 Fév 2007
Localisation: Chez moi le plus possible ...

Messagepar Subbat » Ven 05 Aoû, 2016 8:16

Bah il peut pas faire autrement que ce qu'il fait... En mode autonome, l'utilisation de m4mbo entraine l'encodage des différente parties que l'on souhaite conserver, et ensuite m4ng colle les différentes parties...

Il utilise la procédure classique de m4mbo en mode autonome...
Image
Image Image
Avatar de l’utilisateur
Subbat
Administrateur
Administrateur
 
Messages: 8400
Inscription: 11 Déc 2008
Localisation: Quelque part... dans le centre de la France...

Messagepar Ducke » Ven 05 Aoû, 2016 9:11

pepsilite a écrit:(@Ducke, j'ai corrigé le texte du bouton "Reset m4mbo".)


:yeap:
Image Image
Avant de poster votre problème, venez faire un tour dans la FAQ voir si la solution ne s'y trouve pas
INFOS UTILES
Image
Avatar de l’utilisateur
Ducke
Administrateur
Administrateur
 
Messages: 8543
Inscription: 08 Fév 2007

PrécédenteSuivante

Retourner vers Premiers pas

Qui est en ligne

Utilisateurs parcourant ce forum: Aucun utilisateur enregistré et 0 invités