[Résolu] pb reencodage mp4

Modérateur: Modérateurs

pb reencodage mp4

Messagepar tofetalex » Sam 28 Nov, 2009 7:46

salut a tous alors voilà mon pb, j'ai acheté un lcd philips avec port usb pour lire des fichiers video (format compatible : mpeg1, mpeg2, H264/mpeg4-avc

j'ai récupéré un fichier MKV, donc j'extrait la video et l'audio, je remuxe tout ça en mp4 et direction la tv et merveille de la technologie j'ai un belle video mais le pb c'est que l'image est etirée

donc je me dit no panic je vais rajouter des bandes noire avec m4ng (jusque là j'ai bon, enfin je pense)

j'ouvre mon fichier, je conserve l'audio, pour la video je coche l'option combler pleine écran, mais après c'est là que ça ce complique car j'ai testé le x264 vfw, le x264 cli, le ffdshow h264 tout ça avec un format de sortie en mp4 et bien sur ma tv pas d'image uniquement le son (rrrrrr !!!!!!) par contre sur le pc nickel

j'ai même essayer le divx et le xvid et pareil même pb

heureusement que je travail sur un sample d'1 minute ça m'a permis de faire pas mal d'essais

voilà j'espère que quelqu'un aura une idée pour résoudre mon pb
tofetalex
 
Messages: 32
Inscription: 28 Nov 2009

Messagepar Underground78 » Sam 28 Nov, 2009 11:45

Bienvenue ! :did:

Quand tu as testé avec le x264 cli, tu avais choisi quel preset ?

Tu pourrais mettre l'analyse du mp4 qui passe mais étiré et celui fait avec m4ng avec le x264 cli pour voir s'il y a des différences flagrantes ?
Avatar de l’utilisateur
Underground78
Administrateur
Administrateur
 
Messages: 11267
Inscription: 06 Fév 2007
Localisation: France

Messagepar tofetalex » Sam 28 Nov, 2009 12:17

comme preset pour x264 cli j'ai mis "engage allow avc in vfw mode" (vu sur un tuto ripp it) cette aprem' je ferai l'analyse et je te tiens au courant
tofetalex
 
Messages: 32
Inscription: 28 Nov 2009

Messagepar Underground78 » Sam 28 Nov, 2009 12:24

Euh, je pense qu'on parle pas de la même chose, je parle du choix à l'encodage quand tu as la liste déroulante qui apparait ?
Avatar de l’utilisateur
Underground78
Administrateur
Administrateur
 
Messages: 11267
Inscription: 06 Fév 2007
Localisation: France

Messagepar tofetalex » Sam 28 Nov, 2009 13:29

oui effectivement je me suis tromper, alors comme preset j'ai essayer dxva-hd-hq et dxva-sd-hq

pour l'analyse :
fichier étiré qui passe sur tv :
General

Complete name : c:\essais.mp4
Format : MPEG-4
Format profile : Base Media
Codec ID : isom
File size : 22.4 MiB
Duration : 59s 726ms
Overall bit rate : 3 150 Kbps
Encoded date : UTC 2009-11-25 18:11:23
Tagged date : UTC 2009-11-25 18:11:23
Writing application : Yamb 2.1.0.0 [http://yamb.unite-video.com]
Video
Format : AVC
Format/Info : Advanced Video Codec
Format profile : High@L4.1
Format settings, CABAC : Yes
Format settings, ReFrames : 8 frames
Codec ID : avc1
Codec ID/Info : Advanced Video Coding
Duration : 59s 726ms
Bit rate mode : Variable
Bit rate : 3 020 Kbps
Maximum bit rate : 7 426 Kbps
Width : 1 280 pixels
Height : 544 pixels
Display aspect ratio : 2.35

Frame rate mode : Constant
Frame rate : 23.976 fps
Resolution : 24 bits
Colorimetry : 4:2:0
Scan type : Progressive
Bits/(Pixel*Frame) : 0.181
Stream size : 21.5 MiB (96%)
Encoded date : UTC 2009-11-25 18:11:23
Tagged date : UTC 2009-11-25 18:11:26

et pour le fichier reencoder qui n'a pas d'image (avec preset dxva hd hq) :

General
Complete name : c:\OUT_essais.mp4
Format : MPEG-4
Format profile : Base Media
Codec ID : isom
File size : 22.5 MiB
Duration : 59s 726ms
Overall bit rate : 3 156 Kbps
Encoded date : UTC 2009-11-27 12:20:24
Tagged date : UTC 2009-11-27 12:20:24
Video
Format : AVC
Format/Info : Advanced Video Codec
Format profile : High@L4.1
Format settings, CABAC : Yes
Format settings, ReFrames : 4 frames
Codec ID : avc1
Codec ID/Info : Advanced Video Coding
Duration : 59s 726ms
Bit rate mode : Variable
Bit rate : 3 020 Kbps
Maximum bit rate : 11.3 Mbps
Width : 1 280 pixels
Height : 960 pixels
Display aspect ratio : 4/3

Frame rate mode : Constant
Frame rate : 23.976 fps
Resolution : 24 bits
Colorimetry : 4:2:0
Scan type : Progressive
Bits/(Pixel*Frame) : 0.103
Stream size : 21.5 MiB (96%)
Writing library : x264 core 75 r1251M e553a4c
Encoding settings : cabac=1 / ref=4 / deblock=1:-1:-1 / analyse=0x3:0x113 / me=umh / subme=7 / psy=1 / psy_rd=1.0:0.0 / mixed_ref=1 / me_range=16 / chroma_me=1 / trellis=2 / 8x8dct=1 / cqm=0 / deadzone=21,11 / chroma_qp_offset=-2 / threads=1 / nr=0 / decimate=1 / mbaff=0 / bframes=3 / b_pyramid=0 / b_adapt=2 / b_bias=0 / direct=3 / wpredb=1 / keyint=250 / keyint_min=25 / scenecut=40 / rc_lookahead=40 / rc=2pass / mbtree=1 / bitrate=3020 / ratetol=1.0 / qcomp=0.60 / qpmin=10 / qpmax=51 / qpstep=4 / cplxblur=20.0 / qblur=0.5 / vbv_maxrate=50000 / vbv_bufsize=50000 / ip_ratio=1.40 / aq=1:1.00
Encoded date : UTC 2009-11-27 12:20:24
Tagged date : UTC 2009-11-27 12:20:24

voilà pour moi c'est un peu du chinois, j'ai vu quelque différence mais je ne sais pas à quoi cela correspond
tofetalex
 
Messages: 32
Inscription: 28 Nov 2009

Messagepar BiGf0oT » Sam 28 Nov, 2009 15:37

ta resolution apres reencodage devrait etre 1280x720 et la tu as 1280x960 donc normal que ton image soit applatie a l ecran car tu l as transformée en 4/3

quand tu es dans la previsualisation utilise le bouton Borders et tu rajoutes en haut et en bas en symetrique : 88
Dernière édition par BiGf0oT le Sam 28 Nov, 2009 15:47, édité 1 fois.
Proverbe Chien : Si ça ne se mange pas, Si ça ne se baise bas, Pisse dessus !
Avatar de l’utilisateur
BiGf0oT
Administrateur
Administrateur
 
Messages: 6072
Inscription: 03 Fév 2007
Localisation: Dans ma grotte

Messagepar tofetalex » Sam 28 Nov, 2009 15:43

merçi je vais essayer avec la resolution que tu me dit mais je ne saisie pas trop car ma tv est en 1900 x 1080 , alors je suis complètement a coté de la plaque
tofetalex
 
Messages: 32
Inscription: 28 Nov 2009

Messagepar BiGf0oT » Sam 28 Nov, 2009 15:49

ce que tu indiques pour ta tele cest la resolution maximum pas forcement celle des films

sinon pour les analyses de tes video j ai mis en rouge les difference qui sont importantes
Proverbe Chien : Si ça ne se mange pas, Si ça ne se baise bas, Pisse dessus !
Avatar de l’utilisateur
BiGf0oT
Administrateur
Administrateur
 
Messages: 6072
Inscription: 03 Fév 2007
Localisation: Dans ma grotte

Messagepar tofetalex » Sam 28 Nov, 2009 15:57

merçi pour tes lumières, je vais voir si ça marche.

encore une petite question, pour mes prochaine vidéo, comment je sait quelle résolution je doit adopter au réencodage ?
tofetalex
 
Messages: 32
Inscription: 28 Nov 2009

Messagepar tofetalex » Sam 28 Nov, 2009 17:35

:d: merciiiiiiii ça fonctionne nickel. j'ai fait 1 essais qui n'a pas marcher car il fallait 64 au lieu de 88 pour le border (comme quoi il ne faut vraiment pas dépasser la résolution de la vidéo) puis 2 essais concluant (2 juste pour voir si c'était pas un coup de bol)

merci encore une fois pour votre aide précieuse , je vais enfin pouvoir mater mes films.
tofetalex
 
Messages: 32
Inscription: 28 Nov 2009

Messagepar Ducke » Sam 28 Nov, 2009 17:39

je passe le sujet en "résolu" :yeap:
Image Image
Avant de poster votre problème, venez faire un tour dans la FAQ voir si la solution ne s'y trouve pas
INFOS UTILES
Image
Avatar de l’utilisateur
Ducke
Administrateur
Administrateur
 
Messages: 8552
Inscription: 08 Fév 2007


Retourner vers Autres

Qui est en ligne

Utilisateurs parcourant ce forum: Aucun utilisateur enregistré et 0 invités