Réencodage FLV en DivX

Fusion des anciens forums encodage et re-encodage

Modérateur: Modérateurs

Messagepar BiGf0oT » Lun 05 Oct, 2009 14:50

alors comme l a conseille puppet avec un demuxe et remuxe dans un MKV et ré-encodage en DIVX ca fonctionne tres bien, mais comme il le dit la qualite est pas extraordinaire en partant du VP6

là j essaye un ré-encodage direct de la version h.264, on va bien voir si ca va jusqu au bout
Proverbe Chien : Si ça ne se mange pas, Si ça ne se baise bas, Pisse dessus !
Avatar de l’utilisateur
BiGf0oT
Administrateur
Administrateur
 
Messages: 6072
Inscription: 03 Fév 2007
Localisation: Dans ma grotte

Messagepar Puppet » Lun 05 Oct, 2009 15:08

Je peux repondre a ta place, vu que j'ai essaye tout a l'heure ! :mdr Passer d'un h.264/aac/mp4 a un Xvid/mp3/avi ne pose aucun probleme avec m4ng ! ^^
Dernière édition par Puppet le Lun 05 Oct, 2009 15:14, édité 1 fois.
Image
Avatar de l’utilisateur
Puppet
Modérateur
Modérateur
 
Messages: 5855
Inscription: 03 Fév 2007
Localisation: Arcueil

Messagepar BiGf0oT » Lun 05 Oct, 2009 15:09

exact et la qualite est quand meme meilleur
Proverbe Chien : Si ça ne se mange pas, Si ça ne se baise bas, Pisse dessus !
Avatar de l’utilisateur
BiGf0oT
Administrateur
Administrateur
 
Messages: 6072
Inscription: 03 Fév 2007
Localisation: Dans ma grotte

Messagepar Puppet » Lun 05 Oct, 2009 15:15

Vu que la source elle-meme est meilleure, ca parrait logique ! ^^
Image
Avatar de l’utilisateur
Puppet
Modérateur
Modérateur
 
Messages: 5855
Inscription: 03 Fév 2007
Localisation: Arcueil

Messagepar Mathal » Jeu 08 Oct, 2009 22:57

Et bien en tout cas je suis content de voir que ça intéresse du monde :)

Puppet a écrit:Ca : http://www.videohelp.com/tools/FLV_Extract
Sinon je comprend pas pourquoi il a pas prit la version h264/aac/mp4...


Par contre je ne comprends pas tout à votre débat :??:
Je ne vois pas de quelle version h264/aac/mp4 tu veux parler Puppet ?
Si c'est avec le plugin Unplug, je n'ai pas bien réussi à le faire marcher, j'ai seulement réussi avec DownloadHelper, et encore souvent il y a plein de video que j'ai pas demandé...

Je veux du DivX car le DD multimédia (Storex MPiX-353) qui va le stocker n'est pas hyper compatible avec beaucoup de
formats videos malheureusement, même le Xvid des fois le son est décalé alors que sur le PC il
n'y a pas de souci.

BiGf0oT a écrit::welc
Formats reconnus sur le Storex MPiX-353 :
AVI • MPEG • VOB • MP3 • WMA JPEG DivX 3.x • DivX 4.x • DivX 5.x • XviD • MPEG1 • MPEG2 MP3 • WMA
il faut donc réencoder ta vidéo
Avatar de l’utilisateur
Mathal
 
Messages: 40
Inscription: 31 Juil 2009

Messagepar KadicK » Ven 09 Oct, 2009 9:03

Unplug est enfin compatible avec le dernier FF ?
Avatar de l’utilisateur
KadicK
Ghost member
Ghost member
 
Messages: 5202
Inscription: 03 Fév 2007

Messagepar Ducke » Ven 09 Oct, 2009 18:06

ben ouais
Image Image
Avant de poster votre problème, venez faire un tour dans la FAQ voir si la solution ne s'y trouve pas
INFOS UTILES
Image
Avatar de l’utilisateur
Ducke
Administrateur
Administrateur
 
Messages: 8544
Inscription: 08 Fév 2007

Messagepar KadicK » Ven 09 Oct, 2009 20:04

J'avais tenté de l'installer juste après la dernière màj de FF et le module n'était pas compatible. Maintenant si ^^
Avatar de l’utilisateur
KadicK
Ghost member
Ghost member
 
Messages: 5202
Inscription: 03 Fév 2007

Messagepar BiGf0oT » Ven 09 Oct, 2009 21:17

Voilà la version MP4 (AVC1+AAC) elle se ré-encode sans probleme avec m4ng

http://dl.free.fr/vqphqoQyW


General

Complete name : c:\users\bigf0ot\desktop\7detable_em17_pickeuxt.mp4
Format : MPEG-4
Format profile : Base Media / Version 2
Codec ID : mp42
File size : 67.7 MiB
Duration : 11mn 39s
Overall bit rate : 811 Kbps
Encoded date : UTC 2008-11-26 13:26:04
Tagged date : UTC 2008-11-26 13:26:31
Writing application : edge 1.5.1
cstt : 1
pdur : 700.000
coff : 0.000
abit : 107
vbit : 700
pbyt : 70971170
cbyt : 70954778


Video

Format : AVC
Format/Info : Advanced Video Codec
Format profile : High@L3.1
Format settings, CABAC : Yes
Format settings, ReFrames : 3 frames
Codec ID : avc1
Codec ID/Info : Advanced Video Coding
Duration : 11mn 39s
Bit rate mode : Variable
Bit rate : 700 Kbps
Width : 720 pixels
Height : 576 pixels
Display aspect ratio : 5/4
Frame rate mode : Constant
Frame rate : 25.000 fps
Standard : PAL
Resolution : 24 bits
Colorimetry : 4:2:0
Scan type : Progressive
Bits/(Pixel*Frame) : 0.068
Stream size : 58.4 MiB (86%)
Encoded date : UTC 2008-11-26 13:26:04
Tagged date : UTC 2008-11-26 13:26:05


Audio

Format : AAC
Format/Info : Advanced Audio Codec
Format version : Version 4
Format profile : LC
Format settings, SBR : No
Codec ID : 40
Duration : 11mn 39s
Bit rate mode : Variable
Bit rate : 107 Kbps
Maximum bit rate : 135 Kbps
Channel(s) : 2 channels
Channel positions : L R
Sampling rate : 44.1 KHz
Resolution : 16 bits
Stream size : 8.94 MiB (13%)
Encoded date : UTC 2008-11-26 13:26:31
Tagged date : UTC 2008-11-26 13:26:31
Proverbe Chien : Si ça ne se mange pas, Si ça ne se baise bas, Pisse dessus !
Avatar de l’utilisateur
BiGf0oT
Administrateur
Administrateur
 
Messages: 6072
Inscription: 03 Fév 2007
Localisation: Dans ma grotte

Messagepar Mathal » Jeu 15 Oct, 2009 1:33

Merci BiGf0oT ;)

Peux-tu m'expliquer comment tu l'as récupérer sans passer par du FLV ?
Avatar de l’utilisateur
Mathal
 
Messages: 40
Inscription: 31 Juil 2009

Messagepar BiGf0oT » Jeu 15 Oct, 2009 16:19

dans firefox avec unplug tu te connectes sur le site ou tu as la video et au niveau de celle ci tu choisi HD et tu cliques dessus pour etre diriger vers dailymotion par exemple et ensuite tu vas dans unplug et tu choisi une ligne ou il y a h64-hq tu le download en mettant comme extension mp4
Proverbe Chien : Si ça ne se mange pas, Si ça ne se baise bas, Pisse dessus !
Avatar de l’utilisateur
BiGf0oT
Administrateur
Administrateur
 
Messages: 6072
Inscription: 03 Fév 2007
Localisation: Dans ma grotte

Messagepar Mathal » Jeu 22 Oct, 2009 1:58

Cool merci je vais essayer :)
Avatar de l’utilisateur
Mathal
 
Messages: 40
Inscription: 31 Juil 2009

Messagepar Mathal » Ven 09 Avr, 2010 10:42

cool avec unplug ça marche bien aussi !
Par contre je viens d'essayer avec une autre vidéo mais on dirait que seul le FLV est disponible ?
ou alors j'ai pas trouver de version mp4 ou de meilleur qualité.
voici le lien : http://www.redcastle.fr/fiche-produit/videos/
Avatar de l’utilisateur
Mathal
 
Messages: 40
Inscription: 31 Juil 2009

Précédente

Retourner vers m4ng V1

Qui est en ligne

Utilisateurs parcourant ce forum: Aucun utilisateur enregistré et 0 invités