Résultat d'un ré-encodage non sauvegardé

Modérateur: Modérateurs

Messagepar Subbat » Mar 04 Juin, 2013 10:42

Bizarre ton affaire là... Sans doute rien à voir, mais commence par supprimer tous le fichier sauf ta source... et peut-être donner un autre nom à ta source que ce 0000.TS (film.TS par exemple)

Et ensuite, tu ouvres m4ng v4, en mode expert+autonome (tu dois avoir un liseré jaune et un rouge en haut et en bas...) puis tu charges ton TS et tu ré-essaies pour voir...
Image
Image Image
Avatar de l’utilisateur
Subbat
Administrateur
Administrateur
 
Messages: 8409
Inscription: 11 Déc 2008
Localisation: Quelque part... dans le centre de la France...

Messagepar pepsilite » Mar 04 Juin, 2013 13:41

Bon là il y a définitivement un souci avec ta source vidéo ...
Lance m4ng v4, clique sur le bouton ( ? ) en haut et dans le menu cherche "Ouvrir le dossier de travail", ensuite cherche et lance ffmpeg_debug.bat, tu auras un message d'erreur qui va surement s'afficher.
05/07/15 m4ng v5 est disponible au téléchargement en version finale : m4ng v5
Avatar de l’utilisateur
pepsilite
The Grinch
The Grinch
 
Messages: 22990
Inscription: 03 Fév 2007
Localisation: Chez moi le plus possible ...

Messagepar Garibaldi31 » Mar 04 Juin, 2013 13:46

Je regarde ça en rentrant et je vous tiens au courant. Merci
Garibaldi31
 
Messages: 27
Inscription: 01 Juin 2013

Messagepar Garibaldi31 » Mar 04 Juin, 2013 19:37

Voilà ce que cela donne :

D:\Users\Loïc\AppData\Roaming\m4ng>"C:\PROGRA~2\m4ng_v4\system\ffmpeg_20102012.e
xe" -i "t:\test\00000.ts" -s 1920x1072 -an -f yuv4mpegpipe -y - | C:\PROGRA~2\
m4ng_v4\system\x264_32.exe --demuxer y4m --bitrate 8000 --pass 2 --stats "D:\Use
rs\Lo´c\AppData\Roaming\m4ng\x264.stats" --preset medium --bluray-compat --open-
gop --level 4.1 --keyint 24 --min-keyint 2 --vbv-bufsize 30000 --vbv-maxrate 400
00 --slices 4 --colorprim "bt709" --transfer "bt709" --colormatrix "bt709" -o "T
:\Test\OUT_00~1.MP4v.MKV" -
ffmpeg version N-45739-g04bf2e7 Copyright (c) 2000-2012 the FFmpeg developers
built on Oct 20 2012 00:16:49 with gcc 4.7.2 (GCC)
configuration: --enable-gpl --enable-version3 --disable-pthreads --enable-runt
ime-cpudetect --enable-avisynth --enable-bzlib --enable-frei0r --enable-libass -
-enable-libopencore-amrnb --enable-libopencore-amrwb --enable-libfreetype --enab
le-libgsm --enable-libmp3lame --enable-libnut --enable-libopenjpeg --enable-libo
pus --enable-librtmp --enable-libschroedinger --enable-libspeex --enable-libtheo
ra --enable-libutvideo --enable-libvo-aacenc --enable-libvo-amrwbenc --enable-li
bvorbis --enable-libvpx --enable-libx264 --enable-libxavs --enable-libxvid --ena
ble-zlib
libavutil 51. 76.100 / 51. 76.100
libavcodec 54. 67.100 / 54. 67.100
libavformat 54. 33.100 / 54. 33.100
libavdevice 54. 3.100 / 54. 3.100
libavfilter 3. 19.103 / 3. 19.103
libswscale 2. 1.101 / 2. 1.101
libswresample 0. 16.100 / 0. 16.100
libpostproc 52. 1.100 / 52. 1.100
t:\test\00000.ts: No such file or directory
x264 [error]: could not open input file `-'

D:\Users\Loïc\AppData\Roaming\m4ng>"C:\PROGRA~2\m4ng_v4\system\ffmpeg_20102012.e
xe" -i "T:\Test\OUT_00~1.MP4v.MKV" -i "t:\test\00000.ts" -vf "scale=1920:1084, s
cale=1920:1072" -map 0:0 -map 1:1 -map 1:2 -vcodec copy -c:a:0 ac3 -b:a:0 640
000 -ac:1 2 -c:a:1 ac3 -b:a:1 640000 -ac:2 2 -y "T:\Test\OUT_00~1.MP4"
ffmpeg version N-45739-g04bf2e7 Copyright (c) 2000-2012 the FFmpeg developers
built on Oct 20 2012 00:16:49 with gcc 4.7.2 (GCC)
configuration: --enable-gpl --enable-version3 --disable-pthreads --enable-runt
ime-cpudetect --enable-avisynth --enable-bzlib --enable-frei0r --enable-libass -
-enable-libopencore-amrnb --enable-libopencore-amrwb --enable-libfreetype --enab
le-libgsm --enable-libmp3lame --enable-libnut --enable-libopenjpeg --enable-libo
pus --enable-librtmp --enable-libschroedinger --enable-libspeex --enable-libtheo
ra --enable-libutvideo --enable-libvo-aacenc --enable-libvo-amrwbenc --enable-li
bvorbis --enable-libvpx --enable-libx264 --enable-libxavs --enable-libxvid --ena
ble-zlib
libavutil 51. 76.100 / 51. 76.100
libavcodec 54. 67.100 / 54. 67.100
libavformat 54. 33.100 / 54. 33.100
libavdevice 54. 3.100 / 54. 3.100
libavfilter 3. 19.103 / 3. 19.103
libswscale 2. 1.101 / 2. 1.101
libswresample 0. 16.100 / 0. 16.100
libpostproc 52. 1.100 / 52. 1.100
T:\Test\OUT_00~1.MP4v.MKV: Invalid data found when processing input

D:\Users\Loïc\AppData\Roaming\m4ng>pause
Appuyez sur une touche pour continuer...
Garibaldi31
 
Messages: 27
Inscription: 01 Juin 2013

Messagepar pepsilite » Mar 04 Juin, 2013 19:39

la réponse est tout à la fin :

T:\Test\OUT_00~1.MP4v.MKV: Invalid data found when processing input


La source a un gros problème qui l'empêche de pouvoir être réencodée...
05/07/15 m4ng v5 est disponible au téléchargement en version finale : m4ng v5
Avatar de l’utilisateur
pepsilite
The Grinch
The Grinch
 
Messages: 22990
Inscription: 03 Fév 2007
Localisation: Chez moi le plus possible ...

Messagepar Garibaldi31 » Mar 04 Juin, 2013 19:44

Le hic, c'est que j'avais renommé mon fichier Superman.ts, du coup je comprends pas pourquoi il cherche encore l'ancien nommage 00000.ts? Bon je crois que j'aurais pas du supprimer tous les fichiers et renommer ma source, je vais donc reprendre la manip avec le nouveau nommage.
Garibaldi31
 
Messages: 27
Inscription: 01 Juin 2013

Messagepar pepsilite » Mar 04 Juin, 2013 19:46

Ah, alors le ffmpeg_debug date peut-être d'un ancien test, tu n'as donc pas fait le test en mode autonome aujourd'hui.
05/07/15 m4ng v5 est disponible au téléchargement en version finale : m4ng v5
Avatar de l’utilisateur
pepsilite
The Grinch
The Grinch
 
Messages: 22990
Inscription: 03 Fév 2007
Localisation: Chez moi le plus possible ...

Messagepar Subbat » Mar 04 Juin, 2013 20:17

Garibaldi31 a écrit:Bon je crois que j'aurais pas du supprimer tous les fichiers et renommer ma source


Non ça ça ne peut pas avoir eu quelque incidence que ce soit...

Par contre je ne comprend pas pourquoi dans le fichier de debug, la vidéo de sortie est censé s'appeler blabla.MP4v.MKV... Il y a peut être un hic ici pepsi non ? Et toujours pour pepsi... tu as vu que la session utilisateur de Garibaldi s'appelait "Loïc"... qui est visiblement traduit par "Lo'c"... une piste aussi peut-être...
Image
Image Image
Avatar de l’utilisateur
Subbat
Administrateur
Administrateur
 
Messages: 8409
Inscription: 11 Déc 2008
Localisation: Quelque part... dans le centre de la France...

Messagepar Garibaldi31 » Mar 04 Juin, 2013 20:27

C'est cela, il y avait incohérence entre le renommage que j'avais effectué pour suivre un des premiers conseils, et l'analyse effectuée par ffmpeg, qui se portait sur la conversion d'hier soir avec un nommage différent. J'ai donc tout repris depuis le début, avec un nommage simple de ma source. Voilà ce que ça donne :


D:\Users\Loïc\AppData\Roaming\m4ng>"C:\PROGRA~2\m4ng_v4\system\ffmpeg_20102012.e
xe" -i "t:\test\superman.ts" -s 1920x1084 -an -f yuv4mpegpipe -y - | C:\PROGRA
~2\m4ng_v4\system\x264_32.exe --demuxer y4m --bitrate 8000 --pass 2 --stats "D:\
Users\Lo´c\AppData\Roaming\m4ng\x264.stats" --preset veryslow --tune film --blur
ay-compat --open-gop --interlaced --level 4.1 --keyint 30 --min-keyint 3 --vbv-b
ufsize 30000 --vbv-maxrate 40000 --slices 4 --colorprim "bt709" --transfer "bt70
9" --colormatrix "bt709" -o "T:\Test\OUT_SU~1.MP4v.MKV" -
ffmpeg version N-45739-g04bf2e7 Copyright (c) 2000-2012 the FFmpeg developers
built on Oct 20 2012 00:16:49 with gcc 4.7.2 (GCC)
configuration: --enable-gpl --enable-version3 --disable-pthreads --enable-runt
ime-cpudetect --enable-avisynth --enable-bzlib --enable-frei0r --enable-libass -
-enable-libopencore-amrnb --enable-libopencore-amrwb --enable-libfreetype --enab
le-libgsm --enable-libmp3lame --enable-libnut --enable-libopenjpeg --enable-libo
pus --enable-librtmp --enable-libschroedinger --enable-libspeex --enable-libtheo
ra --enable-libutvideo --enable-libvo-aacenc --enable-libvo-amrwbenc --enable-li
bvorbis --enable-libvpx --enable-libx264 --enable-libxavs --enable-libxvid --ena
ble-zlib
libavutil 51. 76.100 / 51. 76.100
libavcodec 54. 67.100 / 54. 67.100
libavformat 54. 33.100 / 54. 33.100
libavdevice 54. 3.100 / 54. 3.100
libavfilter 3. 19.103 / 3. 19.103
libswscale 2. 1.101 / 2. 1.101
libswresample 0. 16.100 / 0. 16.100
libpostproc 52. 1.100 / 52. 1.100
[mpegts @ 020eb100] Stream #3: not enough frames to estimate rate; consider incr
easing probesize

[mpegts @ 020eb100] Stream #4: not enough frames to estimate rate; consider incr
easing probesize

[mpegts @ 020eb100] Stream #5: not enough frames to estimate rate; consider incr
easing probesize
[mpegts @ 020eb100] Stream #6: not enough frames to estimate rate; consider incr
easing probesize
[mpegts @ 020eb100] Stream #7: not enough frames to estimate rate; consider incr
easing probesize
[mpegts @ 020eb100] Stream #8: not enough frames to estimate rate; consider incr
easing probesize
[mpegts @ 020eb100] Stream #9: not enough frames to estimate rate; consider incr
easing probesize
[mpegts @ 020eb100] Stream #10: not enough frames to estimate rate; consider inc
reasing probesize
[mpegts @ 020eb100] Stream #11: not enough frames to estimate rate; consider inc
reasing probesize
[mpegts @ 020eb100] Stream #12: not enough frames to estimate rate; consider inc
reasing probesize
[mpegts @ 020eb100] Stream #13: not enough frames to estimate rate; consider inc
reasing probesize
[mpegts @ 020eb100] Stream #14: not enough frames to estimate rate; consider inc
reasing probesize
[mpegts @ 020eb100] Stream #15: not enough frames to estimate rate; consider inc
reasing probesize
[mpegts @ 020eb100] Could not find codec parameters for stream 3 (Subtitle: hdmv
_pgs_subtitle ([144][0][0][0] / 0x0090)): unspecified size
Consider increasing the value for the 'analyzeduration' and 'probesize' options

[mpegts @ 020eb100] Could not find codec parameters for stream 4 (Subtitle: hdmv
_pgs_subtitle ([144][0][0][0] / 0x0090)): unspecified size
Consider increasing the value for the 'analyzeduration' and 'probesize' options

[mpegts @ 020eb100] Could not find codec parameters for stream 5 (Subtitle: hdmv
_pgs_subtitle ([144][0][0][0] / 0x0090)): unspecified size
Consider increasing the value for the 'analyzeduration' and 'probesize' options
[mpegts @ 020eb100] Could not find codec parameters for stream 6 (Subtitle: hdmv
_pgs_subtitle ([144][0][0][0] / 0x0090)): unspecified size
Consider increasing the value for the 'analyzeduration' and 'probesize' options
[mpegts @ 020eb100] Could not find codec parameters for stream 7 (Subtitle: hdmv
_pgs_subtitle ([144][0][0][0] / 0x0090)): unspecified size
Consider increasing the value for the 'analyzeduration' and 'probesize' options
[mpegts @ 020eb100] Could not find codec parameters for stream 8 (Subtitle: hdmv
_pgs_subtitle ([144][0][0][0] / 0x0090)): unspecified size
Consider increasing the value for the 'analyzeduration' and 'probesize' options
[mpegts @ 020eb100] Could not find codec parameters for stream 9 (Subtitle: hdmv
_pgs_subtitle ([144][0][0][0] / 0x0090)): unspecified size
Consider increasing the value for the 'analyzeduration' and 'probesize' options
[mpegts @ 020eb100] Could not find codec parameters for stream 10 (Subtitle: hdm
v_pgs_subtitle ([144][0][0][0] / 0x0090)): unspecified size
Consider increasing the value for the 'analyzeduration' and 'probesize' options
[mpegts @ 020eb100] Could not find codec parameters for stream 11 (Subtitle: hdm
v_pgs_subtitle ([144][0][0][0] / 0x0090)): unspecified size
Consider increasing the value for the 'analyzeduration' and 'probesize' options
[mpegts @ 020eb100] Could not find codec parameters for stream 12 (Subtitle: hdm
v_pgs_subtitle ([144][0][0][0] / 0x0090)): unspecified size
Consider increasing the value for the 'analyzeduration' and 'probesize' options
[mpegts @ 020eb100] Could not find codec parameters for stream 13 (Subtitle: hdm
v_pgs_subtitle ([144][0][0][0] / 0x0090)): unspecified size
Consider increasing the value for the 'analyzeduration' and 'probesize' options
[mpegts @ 020eb100] Could not find codec parameters for stream 14 (Subtitle: hdm
v_pgs_subtitle ([144][0][0][0] / 0x0090)): unspecified size
Consider increasing the value for the 'analyzeduration' and 'probesize' options
[mpegts @ 020eb100] Could not find codec parameters for stream 15 (Subtitle: hdm
v_pgs_subtitle ([144][0][0][0] / 0x0090)): unspecified size
Consider increasing the value for the 'analyzeduration' and 'probesize' options
[NULL @ 0429fb20] start time is not set in estimate_timings_from_pts
[NULL @ 042a5b00]start time is not set in estimate_timings_from_pts
[NULL @ 042abb00] start time is not set in estimate_timings_from_pts
[NULL @ 042c2440] start time is not set in estimate_timings_from_pts
[NULL @ 042c89c0] start time is not set in estimate_timings_from_pts
[NULL @ 042ceb00] start time is not set in estimate_timings_from_pts
[NULL @ 042d4ae0] start time is not set in estimate_timings_from_pts
[NULL @ 042daac0] start time is not set in estimate_timings_from_pts
[NULL @ 042e0aa0] start time is not set in estimate_timings_from_pts
[NULL @ 042e6a20] start time is not set in estimate_timings_from_pts
[NULL @ 042ecdc0] start time is not set in estimate_timings_from_pts
[NULL @ 042f3120] start time is not set in estimate_timings_from_pts
[NULL @ 042f94c0] start time is not set in estimate_timings_from_pts
Input #0, mpegts, from 't:\test\superman.ts':
Duration: 02:34:21.37, start: 600.000000, bitrate: 18333 kb/s
Program 1
Stream #0:0[0x1011]: Video: vc1 (Advanced) (VC-1 / 0x312D4356), yuv420p, 192
0x1080 [SAR 1:1 DAR 16:9], 23.98 fps, 23.98 tbr, 90k tbn, 47.95 tbc
Stream #0:1[0x1100](eng): Audio: dts (DTS-HD MA) ([134][0][0][0] / 0x0086),
48000 Hz, 5.1(side), fltp, 1536 kb/s
Stream #0:2[0x1101](fre): Audio: ac3 (AC-3 / 0x332D4341), 48000 Hz, 5.1(side
), s16, 640 kb/s
Stream #0:3[0x1200](eng): Subtitle: hdmv_pgs_subtitle ([144][0][0][0] / 0x00
90)
Stream #0:4[0x1201](fre): Subtitle: hdmv_pgs_subtitle ([144][0][0][0] / 0x00
90)
Stream #0:5[0x1202](ger): Subtitle: hdmv_pgs_subtitle ([144][0][0][0] / 0x00
90)
Stream #0:6[0x1203](ita): Subtitle: hdmv_pgs_subtitle ([144][0][0][0] / 0x00
90)
Stream #0:7[0x1204](spa): Subtitle: hdmv_pgs_subtitle ([144][0][0][0] / 0x00
90)
Stream #0:8[0x1205](por): Subtitle: hdmv_pgs_subtitle ([144][0][0][0] / 0x00
90)
Stream #0:9[0x1206](dan): Subtitle: hdmv_pgs_subtitle ([144][0][0][0] / 0x00
90)
Stream #0:10[0x1207](fin): Subtitle: hdmv_pgs_subtitle ([144][0][0][0] / 0x0
090)
Stream #0:11[0x1208](ice): Subtitle: hdmv_pgs_subtitle ([144][0][0][0] / 0x0
090)
Stream #0:12[0x1209](nor): Subtitle: hdmv_pgs_subtitle ([144][0][0][0] / 0x0
090)
Stream #0:13[0x120a](pol): Subtitle: hdmv_pgs_subtitle ([144][0][0][0] / 0x0
090)
Stream #0:14[0x120b](rus): Subtitle: hdmv_pgs_subtitle ([144][0][0][0] / 0x0
090)
Stream #0:15[0x120c](swe): Subtitle: hdmv_pgs_subtitle ([144][0][0][0] / 0x0
090)
Output #0, yuv4mpegpipe, to 'pipe:':
Metadata:
encoder : Lavf54.33.100
Stream #0:0: Video: rawvideo (I420 / 0x30323449), yuv420p, 1920x1084 [SAR 27
1:270 DAR 16:9], q=2-31, 200 kb/s, 90k tbn, 23.98 tbc
Stream mapping:
Stream #0:0 -> #0:0 (vc1 -> rawvideo)
Press [q] to stop, [?] for help
[yuv4mpegpipe @ 05800c00] Encoder did not produce proper pts, making some up.
y4m [info]: 1920x1084i 271:270 @ 24000/1001 fps (cfr)
x264 [warning]: interlace + weightp is not implemented
x264 [info]: using SAR=271/270
x264 [info]: using cpu capabilities: MMX2 SSE2Fast SSSE3 FastShuffle SSE4.1 Cach
e64
x264 [error]: ratecontrol_init: can't open stats file
x264 [error]: x264_encoder_open failed

av_interleaved_write_frame(): Broken pipe

D:\Users\Loïc\AppData\Roaming\m4ng>"C:\PROGRA~2\m4ng_v4\system\ffmpeg_20102012.e
xe" -i "T:\Test\OUT_SU~1.MP4v.MKV" -i "t:\test\superman.ts" -vf "scale=1920:1084
, scale=1920:1084" -map 0:0 -map 1:1 -map 1:2 -vcodec copy -c:a:0 ac3 -b:a:0
640000 -ac:1 2 -c:a:1 ä◄( -b:a:1 640000 -ac:2 2 -y "T:\Test\OUT_SU~1.MP4"
ffmpeg version N-45739-g04bf2e7 Copyright (c) 2000-2012 the FFmpeg developers
built on Oct 20 2012 00:16:49 with gcc 4.7.2 (GCC)
configuration: --enable-gpl --enable-version3 --disable-pthreads --enable-runt
ime-cpudetect --enable-avisynth --enable-bzlib --enable-frei0r --enable-libass -
-enable-libopencore-amrnb --enable-libopencore-amrwb --enable-libfreetype --enab
le-libgsm --enable-libmp3lame --enable-libnut --enable-libopenjpeg --enable-libo
pus --enable-librtmp --enable-libschroedinger --enable-libspeex --enable-libtheo
ra --enable-libutvideo --enable-libvo-aacenc --enable-libvo-amrwbenc --enable-li
bvorbis --enable-libvpx --enable-libx264 --enable-libxavs --enable-libxvid --ena
ble-zlib
libavutil 51. 76.100 / 51. 76.100
libavcodec 54. 67.100 / 54. 67.100
libavformat 54. 33.100 / 54. 33.100
libavdevice 54. 3.100 / 54. 3.100
libavfilter 3. 19.103 / 3. 19.103
libswscale 2. 1.101 / 2. 1.101
libswresample 0. 16.100 / 0. 16.100
libpostproc 52. 1.100 / 52. 1.100
T:\Test\OUT_SU~1.MP4v.MKV: Invalid data found when processing input

D:\Users\Loïc\AppData\Roaming\m4ng>pause
Appuyez sur une touche pour continuer...

Je suis un peu étonné par contre par le message d'erreur à la fin. Pourquoi le fichier s'appelle-t'il OUT_SU~1.MP4v.MKV? Ça colle pas avec le conteneur choisi (MP4).
Garibaldi31
 
Messages: 27
Inscription: 01 Juin 2013

Messagepar Garibaldi31 » Mar 04 Juin, 2013 20:32

J'avais pas fait attention à ce détail, et c'est vrai que mon prénom pourrait poser problème une fois inclus dans le chemin. Mais dans ce cas, je n'aurais jamais pu encoder de vidéos, or ce n'est pas le cas, puisque j'avais déjà réussi à convertir un dvd9 avec la V3 de M4ng.
Garibaldi31
 
Messages: 27
Inscription: 01 Juin 2013

Messagepar pepsilite » Mar 04 Juin, 2013 20:35

D:\Users\Loïc\AppData\Roaming\m4ng>"C:\PROGRA~2\m4ng_v4\system\ffmpeg_20102012.e
xe" -i "T:\Test\OUT_SU~1.MP4v.MKV" -i "t:\test\superman.ts" -vf "scale=1920:1084
, scale=1920:1084" -map 0:0 -map 1:1 -map 1:2 -vcodec copy -c:a:0 ac3 -b:a:0
640000 -ac:1 2 -c:a:1 ä◄( -b:a:1 640000 -ac:2 2 -y "T:\Test\OUT_SU~1.MP4"

J'ai du mal à suivre là, dans ce test, il y a 2 sources, dont "T:\Test\OUT_SU~1.MP4v.MKV"... forcément, ça doit coincer quelque part.
05/07/15 m4ng v5 est disponible au téléchargement en version finale : m4ng v5
Avatar de l’utilisateur
pepsilite
The Grinch
The Grinch
 
Messages: 22990
Inscription: 03 Fév 2007
Localisation: Chez moi le plus possible ...

Messagepar Garibaldi31 » Mar 04 Juin, 2013 20:46

J'ai du lancer 2 x ffmpeg, car la première fois que j'ai voulu sélectionner, je me suis planté, j'ai fait ctrl+c, ce qui a fermé la fenêtre. Serait-il possible que ce fichier OUT_SU~1.MP4v.MKV ait été crée lors de ma première tentative, et qu'à la deuxième il ait considéré les 2 fichiers?

Je conçois que ce soit très bizarre, mais j'appuie mon hypothèse sur les dates des fichiers et OUT_SU~1.MP4v.MKV est daté à 21h15, alors que le OUT_Superman est daté à 21h08.
Garibaldi31
 
Messages: 27
Inscription: 01 Juin 2013

Messagepar Subbat » Mar 04 Juin, 2013 20:49

Va dans les paramètres de m4ng (accessible depuis la roue d'engrenage en haut) et supprime toutes traces de m4ng...

Le fichier de debug ne sera plus là lui non plus...

Et tu retentes ton encodage à partir de ton TS... et si ça merde, tu retournera lancer le ffmpeg_debug pour voir ce qu'il dit...
Image
Image Image
Avatar de l’utilisateur
Subbat
Administrateur
Administrateur
 
Messages: 8409
Inscription: 11 Déc 2008
Localisation: Quelque part... dans le centre de la France...

Messagepar Garibaldi31 » Mer 05 Juin, 2013 0:09

Donc retour à la case départ. Les traces de m4ng ont été effacées, et je suis parti d'un autre répertoire pour vérifier l'origine de ce fichier bizarre (OUT_SU~1.MP4v.MKV). Et il s'avère bien qu'il n'est pas crée par la conversion, mais plutôt par ffmpeg. Voilà le résultat de ce dernier :

D:\Users\Loïc\AppData\Roaming\m4ng>"C:\PROGRA~2\m4ng_v4\system\ffmpeg_20102012.e
xe" -i "t:\test2\superman.ts" -s 1920x1084 -an -f yuv4mpegpipe -y - | C:\PROGR
A~2\m4ng_v4\system\x264_32.exe --demuxer y4m --bitrate 8000 --pass 2 --stats "D:
\Users\Lo´c\AppData\Roaming\m4ng\x264.stats" --preset medium -o "T:\Test2\OUT_
SU~1.MP4v.MKV" -
ffmpeg version N-45739-g04bf2e7 Copyright (c) 2000-2012 the FFmpeg developers
built on Oct 20 2012 00:16:49 with gcc 4.7.2 (GCC)
configuration: --enable-gpl --enable-version3 --disable-pthreads --enable-runt
ime-cpudetect --enable-avisynth --enable-bzlib --enable-frei0r --enable-libass -
-enable-libopencore-amrnb --enable-libopencore-amrwb --enable-libfreetype --enab
le-libgsm --enable-libmp3lame --enable-libnut --enable-libopenjpeg --enable-libo
pus --enable-librtmp --enable-libschroedinger --enable-libspeex --enable-libtheo
ra --enable-libutvideo --enable-libvo-aacenc --enable-libvo-amrwbenc --enable-li
bvorbis --enable-libvpx --enable-libx264 --enable-libxavs --enable-libxvid --ena
ble-zlib
libavutil 51. 76.100 / 51. 76.100
libavcodec 54. 67.100 / 54. 67.100
libavformat 54. 33.100 / 54. 33.100
libavdevice 54. 3.100 / 54. 3.100
libavfilter 3. 19.103 / 3. 19.103
libswscale 2. 1.101 / 2. 1.101
libswresample 0. 16.100 / 0. 16.100
libpostproc 52. 1.100 / 52. 1.100
[mpegts @ 003ab100] Stream #3: not enough frames to estimate rate; consider incr
easing probesize
[mpegts @ 003ab100] Stream #4: not enough frames to estimate rate; consider incr
easing probesize
[mpegts @ 003ab100] Stream #5: not enough frames to estimate rate; consider incr
easing probesize
[mpegts @ 003ab100] Stream #6: not enough frames to estimate rate; consider incr
easing probesize
[mpegts @ 003ab100] Stream #7: not enough frames to estimate rate; consider incr
easing probesize
[mpegts @ 003ab100] Stream #8: not enough frames to estimate rate; consider incr
easing probesize
[mpegts @ 003ab100] Stream #9: not enough frames to estimate rate; consider incr
easing probesize
[mpegts @ 003ab100] Stream #10: not enough frames to estimate rate; consider inc
reasing probesize
[mpegts @ 003ab100] Stream #11: not enough frames to estimate rate; consider inc
reasing probesize
[mpegts @ 003ab100] Stream #12: not enough frames to estimate rate; consider inc
reasing probesize
[mpegts @ 003ab100] Stream #13: not enough frames to estimate rate; consider inc
reasing probesize
[mpegts @ 003ab100] Stream #14: not enough frames to estimate rate; consider inc
reasing probesize
[mpegts @ 003ab100] Stream #15: not enough frames to estimate rate; consider inc
reasing probesize
[mpegts @ 003ab100] Could not find codec parameters for stream 3 (Subtitle: hdmv
_pgs_subtitle ([144][0][0][0] / 0x0090)): unspecified size
Consider increasing the value for the 'analyzeduration' and 'probesize' options
[mpegts @ 003ab100] Could not find codec parameters for stream 4 (Subtitle: hdmv
_pgs_subtitle ([144][0][0][0] / 0x0090)): unspecified size
Consider increasing the value for the 'analyzeduration' and 'probesize' options
[mpegts @ 003ab100] Could not find codec parameters for stream 5 (Subtitle: hdmv
_pgs_subtitle ([144][0][0][0] / 0x0090)): unspecified size
Consider increasing the value for the 'analyzeduration' and 'probesize' options
[mpegts @ 003ab100] Could not find codec parameters for stream 6 (Subtitle: hdmv
_pgs_subtitle ([144][0][0][0] / 0x0090)): unspecified size
Consider increasing the value for the 'analyzeduration' and 'probesize' options
[mpegts @ 003ab100] Could not find codec parameters for stream 7 (Subtitle: hdmv
_pgs_subtitle ([144][0][0][0] / 0x0090)): unspecified size
Consider increasing the value for the 'analyzeduration' and 'probesize' options
[mpegts @ 003ab100] Could not find codec parameters for stream 8 (Subtitle: hdmv
_pgs_subtitle ([144][0][0][0] / 0x0090)): unspecified size
Consider increasing the value for the 'analyzeduration' and 'probesize' options
[mpegts @ 003ab100] Could not find codec parameters for stream 9 (Subtitle: hdmv
_pgs_subtitle ([144][0][0][0] / 0x0090)): unspecified size
Consider increasing the value for the 'analyzeduration' and 'probesize' options
[mpegts @ 003ab100] Could not find codec parameters for stream 10 (Subtitle: hdm
v_pgs_subtitle ([144][0][0][0] / 0x0090)): unspecified size
Consider increasing the value for the 'analyzeduration' and 'probesize' options
[mpegts @ 003ab100] Could not find codec parameters for stream 11 (Subtitle: hdm
v_pgs_subtitle ([144][0][0][0] / 0x0090)): unspecified size
Consider increasing the value for the 'analyzeduration' and 'probesize' options
[mpegts @ 003ab100] Could not find codec parameters for stream 12 (Subtitle: hdm
v_pgs_subtitle ([144][0][0][0] / 0x0090)): unspecified size
Consider increasing the value for the 'analyzeduration' and 'probesize' options
[mpegts @ 003ab100] Could not find codec parameters for stream 13 (Subtitle: hdm
v_pgs_subtitle ([144][0][0][0] / 0x0090)): unspecified size
Consider increasing the value for the 'analyzeduration' and 'probesize' options
[mpegts @ 003ab100] Could not find codec parameters for stream 14 (Subtitle: hdm
v_pgs_subtitle ([144][0][0][0] / 0x0090)): unspecified size
Consider increasing the value for the 'analyzeduration' and 'probesize' options
[mpegts @ 003ab100] Could not find codec parameters for stream 15 (Subtitle: hdm
v_pgs_subtitle ([144][0][0][0] / 0x0090)): unspecified size
Consider increasing the value for the 'analyzeduration' and 'probesize' options
[NULL @ 0202fb20] start time is not set in estimate_timings_from_pts
[NULL @ 02035b00] start time is not set in estimate_timings_from_pts
[NULL @ 0203bb00] start time is not set in estimate_timings_from_pts
[NULL @ 02052440] start time is not set in estimate_timings_from_pts
[NULL @ 020589c0] start time is not set in estimate_timings_from_pts
[NULL @ 0205eb00] start time is not set in estimate_timings_from_pts
[NULL @ 02064ae0] start time is not set in estimate_timings_from_pts
[NULL @ 0206aac0] start time is not set in estimate_timings_from_pts
[NULL @ 02070aa0] start time is not set in estimate_timings_from_pts
[NULL @ 02076a20] start time is not set in estimate_timings_from_pts
[NULL @ 0207cdc0] start time is not set in estimate_timings_from_pts
[NULL @ 02083120] start time is not set in estimate_timings_from_pts
[NULL @ 020894c0] start time is not set in estimate_timings_from_pts
Input #0, mpegts, from 't:\test2\superman.ts':
Duration: 02:34:21.37, start: 600.000000, bitrate: 18333 kb/s
Program 1
Stream #0:0[0x1011]: Video: vc1 (Advanced) (VC-1 / 0x312D4356), yuv420p, 192
0x1080 [SAR 1:1 DAR 16:9], 23.98 fps, 23.98 tbr, 90k tbn, 47.95 tbc
Stream #0:1[0x1100](eng): Audio: dts (DTS-HD MA) ([134][0][0][0] / 0x0086),
48000 Hz, 5.1(side), fltp, 1536 kb/s
Stream #0:2[0x1101](fre): Audio: ac3 (AC-3 / 0x332D4341), 48000 Hz, 5.1(side
), s16, 640 kb/s
Stream #0:3[0x1200](eng): Subtitle: hdmv_pgs_subtitle ([144][0][0][0] / 0x00
90)
Stream #0:4[0x1201](fre): Subtitle: hdmv_pgs_subtitle ([144][0][0][0] / 0x00
90)
Stream #0:5[0x1202](ger): Subtitle: hdmv_pgs_subtitle ([144][0][0][0] / 0x00
90)
Stream #0:6[0x1203](ita): Subtitle: hdmv_pgs_subtitle ([144][0][0][0] / 0x00
90)
Stream #0:7[0x1204](spa): Subtitle: hdmv_pgs_subtitle ([144][0][0][0] / 0x00
90)
Stream #0:8[0x1205](por): Subtitle: hdmv_pgs_subtitle ([144][0][0][0] / 0x00
90)
Stream #0:9[0x1206](dan): Subtitle: hdmv_pgs_subtitle ([144][0][0][0] / 0x00
90)
Stream #0:10[0x1207](fin): Subtitle: hdmv_pgs_subtitle ([144][0][0][0] / 0x0
090)
Stream #0:11[0x1208](ice): Subtitle: hdmv_pgs_subtitle ([144][0][0][0] / 0x0
090)
Stream #0:12[0x1209](nor): Subtitle: hdmv_pgs_subtitle ([144][0][0][0] / 0x0
090)
Stream #0:13[0x120a](pol): Subtitle: hdmv_pgs_subtitle ([144][0][0][0] / 0x0
090)
Stream #0:14[0x120b](rus): Subtitle: hdmv_pgs_subtitle ([144][0][0][0] / 0x0
090)
Stream #0:15[0x120c](swe): Subtitle: hdmv_pgs_subtitle ([144][0][0][0] / 0x0
090)
Output #0, yuv4mpegpipe, to 'pipe:':
Metadata:
encoder : Lavf54.33.100
Stream #0:0: Video: rawvideo (I420 / 0x30323449), yuv420p, 1920x1084 [SAR 27
1:270 DAR 16:9], q=2-31, 200 kb/s, 90k tbn, 23.98 tbc
Stream mapping:
Stream #0:0 -> #0:0 (vc1 -> rawvideo)
Press [q] to stop, [?] for help
[yuv4mpegpipe @ 05880c00] Encoder did not produce proper pts, making some up.
y4m [info]: 1920x1084p 271:270 @ 24000/1001 fps (cfr)
x264 [info]: using SAR=271/270
x264 [info]: using cpu capabilities: MMX2 SSE2Fast SSSE3 FastShuffle SSE4.1 Cach
e64
x264 [error]: ratecontrol_init: can't open stats file
x264 [error]: x264_encoder_open failed

av_interleaved_write_frame(): Broken pipe

D:\Users\Loïc\AppData\Roaming\m4ng>"C:\PROGRA~2\m4ng_v4\system\ffmpeg_20102012.e
xe" -i "T:\Test2\OUT_SU~1.MP4v.MKV" -i "t:\test2\superman.ts" -vf "scale=1920:10
84, scale=1920:1084" -map 0:0 -map 1:1 -map 1:2 -vcodec copy -c:a:0 bvX;☺╣Pû(
-b:a:0 1561000 -ac:1 2 -c:a:1 ä◄( -b:a:1 640000 -ac:2 2 -y "T:\Test2\OUT_SU~1.
MP4"
ffmpeg version N-45739-g04bf2e7 Copyright (c) 2000-2012 the FFmpeg developers
built on Oct 20 2012 00:16:49 with gcc 4.7.2 (GCC)
configuration: --enable-gpl --enable-version3 --disable-pthreads --enable-runt
ime-cpudetect --enable-avisynth --enable-bzlib --enable-frei0r --enable-libass -
-enable-libopencore-amrnb --enable-libopencore-amrwb --enable-libfreetype --enab
le-libgsm --enable-libmp3lame --enable-libnut --enable-libopenjpeg --enable-libo
pus --enable-librtmp --enable-libschroedinger --enable-libspeex --enable-libtheo
ra --enable-libutvideo --enable-libvo-aacenc --enable-libvo-amrwbenc --enable-li
bvorbis --enable-libvpx --enable-libx264 --enable-libxavs --enable-libxvid --ena
ble-zlib
libavutil 51. 76.100 / 51. 76.100
libavcodec 54. 67.100 / 54. 67.100
libavformat 54. 33.100 / 54. 33.100
libavdevice 54. 3.100 / 54. 3.100
libavfilter 3. 19.103 / 3. 19.103
libswscale 2. 1.101 / 2. 1.101
libswresample 0. 16.100 / 0. 16.100
libpostproc 52. 1.100 / 52. 1.100
T:\Test2\OUT_SU~1.MP4v.MKV: Invalid data found when processing input

D:\Users\Loïc\AppData\Roaming\m4ng>pause
Appuyez sur une touche pour continuer...

Pour revenir à une question que j'avais posé précédemment, concernant l'impossibilité de conserver le format audio d'origine en mode autonome (et le débit qui va avec), j'ai constaté un bug. Si on charge (en mode autonome) un profil d'encodage ayant cette option, le format d'origine apparaît (mais n'est pas pour autant sélectionnable), et le débit n'est plus éditable. Le codec sélectionné est par contre bien en rouge avec le "!". Je ne sais pas si cette restriction du mode autonome est voulue, mais je trouve dommage de ne pas pouvoir en profiter en dehors du mode expert.

Dans le doute où ce bug ait pu perturber ffmpeg, je vais le relancer, et je ferais demain un compare des 2 résultats.
Garibaldi31
 
Messages: 27
Inscription: 01 Juin 2013

Messagepar pepsilite » Mer 05 Juin, 2013 1:41

Déjà d'après le LOG de ffmpeg, l'encodage via x264.exe n'est pas possible => "av_interleaved_write_frame(): Broken pipe".
Essaye toujours en mode autonome mais sans utiliser le x264.cli
05/07/15 m4ng v5 est disponible au téléchargement en version finale : m4ng v5
Avatar de l’utilisateur
pepsilite
The Grinch
The Grinch
 
Messages: 22990
Inscription: 03 Fév 2007
Localisation: Chez moi le plus possible ...

Messagepar Garibaldi31 » Mer 05 Juin, 2013 9:15

Je suis parti ce coup-ci du codec x264 ffm. Toujours le même résultat en terme d'encodage, mais ce coup-ci le fichier avec ses 2 extensions n'apparaît pas à l'utilisation de ffmpeg_debug. Voici le résultat :


D:\Users\Loïc\AppData\Roaming\m4ng>"C:\PROGRA~2\m4ng_v4\system\ffmpeg_20102012.e
xe" -i "t:\test2\superman.ts" -vf "scale=1920:1084, scale=1920:1084" -map 0:0
-map 0:1 -map 0:2 -f mp4 -vcodec libx264 -b:v 8000k -c:a:0 ac3 -b:a:0 640000
-ac:1 2 -c:a:1 ac3 -b:a:1 640000 -ac:2 2 -vpre hq -pass 2 -passlogfile "D:\Use
rs\Lo´c\AppData\Roaming\m4ng\log_file" -y "T:\Test2\OUT_SU~1.MP4"
ffmpeg version N-45739-g04bf2e7 Copyright (c) 2000-2012 the FFmpeg developers
built on Oct 20 2012 00:16:49 with gcc 4.7.2 (GCC)
configuration: --enable-gpl --enable-version3 --disable-pthreads --enable-runt
ime-cpudetect --enable-avisynth --enable-bzlib --enable-frei0r --enable-libass -
-enable-libopencore-amrnb --enable-libopencore-amrwb --enable-libfreetype --enab
le-libgsm --enable-libmp3lame --enable-libnut --enable-libopenjpeg --enable-libo
pus --enable-librtmp --enable-libschroedinger --enable-libspeex --enable-libtheo
ra --enable-libutvideo --enable-libvo-aacenc --enable-libvo-amrwbenc --enable-li
bvorbis --enable-libvpx --enable-libx264 --enable-libxavs --enable-libxvid --ena
ble-zlib
libavutil 51. 76.100 / 51. 76.100
libavcodec 54. 67.100 / 54. 67.100
libavformat 54. 33.100 / 54. 33.100
libavdevice 54. 3.100 / 54. 3.100
libavfilter 3. 19.103 / 3. 19.103
libswscale 2. 1.101 / 2. 1.101
libswresample 0. 16.100 / 0. 16.100
libpostproc 52. 1.100 / 52. 1.100
[mpegts @ 01e20900] Stream #3: not enough frames to estimate rate; consider incr
easing probesize
[mpegts @ 01e20900] Stream #4: not enough frames to estimate rate; consider incr
easing probesize
[mpegts @ 01e20900] Stream #5: not enough frames to estimate rate; consider incr
easing probesize
[mpegts @ 01e20900] Stream #6: not enough frames to estimate rate; consider incr
easing probesize
[mpegts @ 01e20900] Stream #7: not enough frames to estimate rate; consider incr
easing probesize
[mpegts @ 01e20900] Stream #8: not enough frames to estimate rate; consider incr
easing probesize
[mpegts @ 01e20900] Stream #9: not enough frames to estimate rate; consider incr
easing probesize
[mpegts @ 01e20900] Stream #10: not enough frames to estimate rate; consider inc
reasing probesize
[mpegts @ 01e20900] Stream #11: not enough frames to estimate rate; consider inc
reasing probesize
[mpegts @ 01e20900] Stream #12: not enough frames to estimate rate; consider inc
reasing probesize
[mpegts @ 01e20900] Stream #13: not enough frames to estimate rate; consider inc
reasing probesize
[mpegts @ 01e20900] Stream #14: not enough frames to estimate rate; consider inc
reasing probesize
[mpegts @ 01e20900] Stream #15: not enough frames to estimate rate; consider inc
reasing probesize
[mpegts @ 01e20900] Could not find codec parameters for stream 3 (Subtitle: hdmv
_pgs_subtitle ([144][0][0][0] / 0x0090)): unspecified size
Consider increasing the value for the 'analyzeduration' and 'probesize' options
[mpegts @ 01e20900] Could not find codec parameters for stream 4 (Subtitle: hdmv
_pgs_subtitle ([144][0][0][0] / 0x0090)): unspecified size
Consider increasing the value for the 'analyzeduration' and 'probesize' options
[mpegts @ 01e20900] Could not find codec parameters for stream 5 (Subtitle: hdmv
_pgs_subtitle ([144][0][0][0] / 0x0090)): unspecified size
Consider increasing the value for the 'analyzeduration' and 'probesize' options
[mpegts @ 01e20900] Could not find codec parameters for stream 6 (Subtitle: hdmv
_pgs_subtitle ([144][0][0][0] / 0x0090)): unspecified size
Consider increasing the value for the 'analyzeduration' and 'probesize' options
[mpegts @ 01e20900] Could not find codec parameters for stream 7 (Subtitle: hdmv
_pgs_subtitle ([144][0][0][0] / 0x0090)): unspecified size
Consider increasing the value for the 'analyzeduration' and 'probesize' options
[mpegts @ 01e20900] Could not find codec parameters for stream 8 (Subtitle: hdmv
_pgs_subtitle ([144][0][0][0] / 0x0090)): unspecified size
Consider increasing the value for the 'analyzeduration' and 'probesize' options
[mpegts @ 01e20900] Could not find codec parameters for stream 9 (Subtitle: hdmv
_pgs_subtitle ([144][0][0][0] / 0x0090)): unspecified size
Consider increasing the value for the 'analyzeduration' and 'probesize' options
[mpegts @ 01e20900] Could not find codec parameters for stream 10 (Subtitle: hdm
v_pgs_subtitle ([144][0][0][0] / 0x0090)): unspecified size
Consider increasing the value for the 'analyzeduration' and 'probesize' options
[mpegts @ 01e20900] Could not find codec parameters for stream 11 (Subtitle: hdm
v_pgs_subtitle ([144][0][0][0] / 0x0090)): unspecified size
Consider increasing the value for the 'analyzeduration' and 'probesize' options
[mpegts @ 01e20900] Could not find codec parameters for stream 12 (Subtitle: hdm
v_pgs_subtitle ([144][0][0][0] / 0x0090)): unspecified size
Consider increasing the value for the 'analyzeduration' and 'probesize' options
[mpegts @ 01e20900] Could not find codec parameters for stream 13 (Subtitle: hdm
v_pgs_subtitle ([144][0][0][0] / 0x0090)): unspecified size
Consider increasing the value for the 'analyzeduration' and 'probesize' options
[mpegts @ 01e20900] Could not find codec parameters for stream 14 (Subtitle: hdm
v_pgs_subtitle ([144][0][0][0] / 0x0090)): unspecified size
Consider increasing the value for the 'analyzeduration' and 'probesize' options
[mpegts @ 01e20900] Could not find codec parameters for stream 15 (Subtitle: hdm
v_pgs_subtitle ([144][0][0][0] / 0x0090)): unspecified size
Consider increasing the value for the 'analyzeduration' and 'probesize' options
[NULL @ 01e50b00] start time is not set in estimate_timings_from_pts
[NULL @ 01e56b20] start time is not set in estimate_timings_from_pts
[NULL @ 01e5cb20] start time is not set in estimate_timings_from_pts
[NULL @ 01e62b00] start time is not set in estimate_timings_from_pts
[NULL @ 01e68b00] start time is not set in estimate_timings_from_pts
[NULL @ 01e6ea80] start time is not set in estimate_timings_from_pts
[NULL @ 01e74c80] start time is not set in estimate_timings_from_pts
[NULL @ 01e7af60] start time is not set in estimate_timings_from_pts
[NULL @ 01e81240] start time is not set in estimate_timings_from_pts
[NULL @ 01e87520] start time is not set in estimate_timings_from_pts
[NULL @ 01e8d900] start time is not set in estimate_timings_from_pts
[NULL @ 01e93c60] start time is not set in estimate_timings_from_pts
[NULL @ 01e9a000] start time is not set in estimate_timings_from_pts
Input #0, mpegts, from 't:\test2\superman.ts':
Duration: 02:34:21.37, start: 600.000000, bitrate: 18333 kb/s
Program 1
Stream #0:0[0x1011]: Video: vc1 (Advanced) (VC-1 / 0x312D4356), yuv420p, 192
0x1080 [SAR 1:1 DAR 16:9], 23.98 fps, 23.98 tbr, 90k tbn, 47.95 tbc
Stream #0:1[0x1100](eng): Audio: dts (DTS-HD MA) ([134][0][0][0] / 0x0086),
48000 Hz, 5.1(side), fltp, 1536 kb/s
Stream #0:2[0x1101](fre): Audio: ac3 (AC-3 / 0x332D4341), 48000 Hz, 5.1(side
), s16, 640 kb/s
Stream #0:3[0x1200](eng): Subtitle: hdmv_pgs_subtitle ([144][0][0][0] / 0x00
90)
Stream #0:4[0x1201](fre): Subtitle: hdmv_pgs_subtitle ([144][0][0][0] / 0x00
90)
Stream #0:5[0x1202](ger): Subtitle: hdmv_pgs_subtitle ([144][0][0][0] / 0x00
90)
Stream #0:6[0x1203](ita): Subtitle: hdmv_pgs_subtitle ([144][0][0][0] / 0x00
90)
Stream #0:7[0x1204](spa): Subtitle: hdmv_pgs_subtitle ([144][0][0][0] / 0x00
90)
Stream #0:8[0x1205](por): Subtitle: hdmv_pgs_subtitle ([144][0][0][0] / 0x00
90)
Stream #0:9[0x1206](dan): Subtitle: hdmv_pgs_subtitle ([144][0][0][0] / 0x00
90)
Stream #0:10[0x1207](fin): Subtitle: hdmv_pgs_subtitle ([144][0][0][0] / 0x0
090)
Stream #0:11[0x1208](ice): Subtitle: hdmv_pgs_subtitle ([144][0][0][0] / 0x0
090)
Stream #0:12[0x1209](nor): Subtitle: hdmv_pgs_subtitle ([144][0][0][0] / 0x0
090)
Stream #0:13[0x120a](pol): Subtitle: hdmv_pgs_subtitle ([144][0][0][0] / 0x0
090)
Stream #0:14[0x120b](rus): Subtitle: hdmv_pgs_subtitle ([144][0][0][0] / 0x0
090)
Stream #0:15[0x120c](swe): Subtitle: hdmv_pgs_subtitle ([144][0][0][0] / 0x0
090)
[libx264 @ 05cfd820] using SAR=271/270
[libx264 @ 05cfd820] using cpu capabilities: MMX2 SSE2Fast SSSE3 FastShuffle SSE
4.1 Cache64
[libx264 @ 05cfd820] ratecontrol_init: can't open stats file
Output #0, mp4, to 'T:\Test2\OUT_SU~1.MP4':
Stream #0:0: Video: h264, yuv420p, 1920x1084 [SAR 271:270 DAR 16:9], q=10-51
, pass 2, 8000 kb/s, 90k tbn, 23.98 tbc
Stream #0:1(eng): Audio: none, 48000 Hz, stereo, fltp
Stream #0:2(fre): Audio: none, 48000 Hz, stereo, fltp
Stream mapping:
Stream #0:0 -> #0:0 (vc1 -> libx264)
Stream #0:1 -> #0:1 (dca -> ac3)
Stream #0:2 -> #0:2 (ac3 -> ac3)
Error while opening encoder for output stream #0:0 - maybe incorrect parameters
such as bit_rate, rate, width or height


D:\Users\Loïc\AppData\Roaming\m4ng>pause
Appuyez sur une touche pour continuer...
Garibaldi31
 
Messages: 27
Inscription: 01 Juin 2013

Messagepar Garibaldi31 » Mer 05 Juin, 2013 12:41

Je viens de tenter pour l'expérience depuis mon compte admin, et je crois que le soucis vient bien du chemin employé pour le travail de M4ng. C'est le ¨ sur le i qui fout le bazar depuis le début. Comme je pense que ça prendra du temps, je ferais un compte rendu ce soir si c'est terminé.

Du coup je me demandais si'il était possible de modifier ce chemin dans les options. Dans le cas où cela n'ait pas été prévu, serait-il possible que cela fasse parti d'une future mise à jour?
Garibaldi31
 
Messages: 27
Inscription: 01 Juin 2013

Messagepar pepsilite » Mer 05 Juin, 2013 14:32

Les caractères spéciaux sont un énorme problème sous windows car tous les programmes utilisés par m4ng sont anglais et ils ne connaissent pas bien entendu autre chose que leur nombril, il n'y a pas de caractères spéciaux en anglais, ça n'existe donc nulle part ailleurs pour eux.
Quelle est ta version de windows? Ces problèmes apparaissent surtout sous XP et ils ont été corrigés (ceux détectés en tout cas) dans la prochaine mise à jour.
Pour ne plus avoir de souci dans ton cas, va dans les paramètres de m4ng et clique sur le bouton rouge en bas "mode sans trace" pour l'activer, m4ng n'utilisera plus le dossier de travail à la suite de ton prénom mais utilisera un dossier "m4ng_work" situé à la racine du dossier d'installation de m4ng, la seule contrainte de ce mode est que m4ng doit impérativement être installé sur un autre disque dur que celui de windows.
Cela dit, j'ai quand même l'impression qu'il y a autre chose de problématique dans tout ça.
05/07/15 m4ng v5 est disponible au téléchargement en version finale : m4ng v5
Avatar de l’utilisateur
pepsilite
The Grinch
The Grinch
 
Messages: 22990
Inscription: 03 Fév 2007
Localisation: Chez moi le plus possible ...

Messagepar Garibaldi31 » Mer 05 Juin, 2013 14:42

Pour le résultat de l'encodage, je verrais ce soir. Ma version de windows, c'est la 64 bits de Seven. Je crois par contre que je me la suis fait pirater récemment, car windows n'arrête pas de me harceler avec ma licence, et j'ai pas encore réussi à régler le problème. Enfin, je serais étonné que cela ait une incidence sur l'encodage.

En tout cas, merci pour le tuyau, car je ne me voyais pas réaliser mes futurs encodages sur une session autre que la mienne. Au pire je peux toujours modifier le noms de celle-ci à posteriori il me semble.

Enfin on progresse! :d:
Garibaldi31
 
Messages: 27
Inscription: 01 Juin 2013

Messagepar Garibaldi31 » Jeu 06 Juin, 2013 21:50

Ça y est, après 31h40 d'encodage (oui oui vous ne rêvez pas, j'ai bien cru que mon PC aller y rester!), le résultat est à la hauteur de mes attentes. Seul soucis non négligeable, j'ai oublié de cocher l'option d'incrustation automatique des sous-titres dans les paramètres de m4ng. C'est ballot! :mad:

Pour la prochaine tentative, je vais attendre l'arrivée de mon core i5, parce qu'en plus le multi-tâche dans ces conditions, faut oublier, ou alors être très patient...

En tout cas merci à pepsi et Subbat pour leur aide précieuse. A voir le résultat pour une taille de fichier divisée par 2 (10Go d'économisé quand même), ça valait le coup. :sante

Avant de vous laisser tranquille, je vais encore vous embêter avec ma question sur le mode autonome, et le format d'origine d'une piste audio, est-il normal de ne pas pouvoir sélectionner cette option comme cela est possible en mode expert?

:merci:
Garibaldi31
 
Messages: 27
Inscription: 01 Juin 2013

Messagepar pepsilite » Jeu 06 Juin, 2013 21:56

Content pour toi que ça marche au final ...
Pour ta question, oui c'est normal, le mode autonome ne récupère pas les pistes audio avant de réencoder, tout est OBLIGATOIREMENT réencodé. Mais si tu tiens absolument à conserver le son original, tu peux le "remuxer" ensuite avec ta vidéo réencodée...
Autre chose, avoir toujours 10go en taille de sortie, c'est beaucoup... trop ... tu pourrais encore facilement diviser la taille par 2 voire par 3 en conservant la même qualité.
05/07/15 m4ng v5 est disponible au téléchargement en version finale : m4ng v5
Avatar de l’utilisateur
pepsilite
The Grinch
The Grinch
 
Messages: 22990
Inscription: 03 Fév 2007
Localisation: Chez moi le plus possible ...

Messagepar Garibaldi31 » Jeu 06 Juin, 2013 22:15

J'imagine qu'il faut que je réduise le bitrate. Jusqu'à quelle valeur, c'est acceptable pour un film en fullHD?
Garibaldi31
 
Messages: 27
Inscription: 01 Juin 2013

Messagepar pepsilite » Jeu 06 Juin, 2013 22:53

Oui, c'est bien en baissant le bitrate, tu as un "indice de qualité" pour te renseigner sur la ligne du codec vidéo de m4ng, cet indice est dépendant de la résolution et du débit demandé. Jusqu'à 0.10 le résultat est très bon, en dessous ça commence à se dégrader. Disons qu'autour de 4000 kbps, ça devrait être excellent pour une taille bien réduite.
05/07/15 m4ng v5 est disponible au téléchargement en version finale : m4ng v5
Avatar de l’utilisateur
pepsilite
The Grinch
The Grinch
 
Messages: 22990
Inscription: 03 Fév 2007
Localisation: Chez moi le plus possible ...

Précédente

Retourner vers m4ng V3

Qui est en ligne

Utilisateurs parcourant ce forum: Aucun utilisateur enregistré et 0 invités