[Résolu] Son non synchronisé

Modérateur: Modérateurs

Son non synchronisé

Messagepar Callewsa » Dim 27 Fév, 2011 14:43

Bonjour,


Chose étrange : j'ai converti un mp4 en divX, le fichier vidéo et le fichier son sont tous deux nickels mais lors du mux, il doit y avoir un souci. En effet, lorsque je lis le fichier .AVI, tout le son (23minutes) est lu lors de la première seconde et le reste de la vidéo est donc muet (22minutes 59 sans son).

Pourtant quand je lis le fichier son à part, il est lu normalement (23 minutes, comme la vidéo). C'est une fois muxé, que le problème se pose. Ce souci apparait peu importe le format (mp3, AAC etc.). Ai-je manqué quelque chose? C'est grave docteur?

Merci pour votre aide!
Il n'y a pas de question idiote, juste des idiots qui n'en posent pas.
Callewsa
 
Messages: 66
Inscription: 06 Jan 2011

Messagepar pepsilite » Dim 27 Fév, 2011 14:48

le son est accéléré en une seconde ou se coupe après une seconde?
05/07/15 m4ng v5 est disponible au téléchargement en version finale : m4ng v5
Avatar de l’utilisateur
pepsilite
The Grinch
The Grinch
 
Messages: 22947
Inscription: 03 Fév 2007
Localisation: Chez moi le plus possible ...

Messagepar Callewsa » Dim 27 Fév, 2011 14:52

Il est lu au complet en 1 seconde et après se coupe.

Petite remarque complémentaire, j'ai démuxé le fichier original et j'ai un .aac qui en lecture fait 1 minute de plus que la vidéo... Étrange!
Il n'y a pas de question idiote, juste des idiots qui n'en posent pas.
Callewsa
 
Messages: 66
Inscription: 06 Jan 2011

Messagepar pepsilite » Dim 27 Fév, 2011 14:58

lu au complet, donc accéléré?
05/07/15 m4ng v5 est disponible au téléchargement en version finale : m4ng v5
Avatar de l’utilisateur
pepsilite
The Grinch
The Grinch
 
Messages: 22947
Inscription: 03 Fév 2007
Localisation: Chez moi le plus possible ...

Messagepar Callewsa » Dim 27 Fév, 2011 15:03

Oui. La vidéo fait bien 23'37 mais l'entièreté du son est lue dès la première seconde du fichier .avi (en hyper-accéléré en somme 23'37 lus en 1 seconde).

En fait, j'ai un fichier .h264 de 23'37 et un .aac de 24'16 en sortie de démuxage... Ça vient peut-être de là?

---
Analyse de l'original :

General

Complete name : c:\users\samuel\desktop\pblv\pblv.mp4
Format : MPEG-4
Format profile : Base Media / Version 2
Codec ID : mp42
File size : 103 MiB
Duration : 23mn 37s
Overall bit rate : 609 Kbps
Encoded date : UTC 2011-02-25 18:39:36
Tagged date : UTC 2011-02-25 18:39:36


Video

Format : AVC
Format/Info : Advanced Video Codec
Format profile : High@L3.0
Format settings, CABAC : Yes
Format settings, ReFrames : 2 frames
Codec ID : avc1
Codec ID/Info : Advanced Video Coding
Duration : 23mn 37s
Bit rate mode : Variable
Bit rate : 512 Kbps
Width : 608 pixels
Height : 342 pixels
Display aspect ratio : 16/9
Frame rate mode : Constant
Frame rate : 25.000 fps
Resolution : 24 bits
Colorimetry : 4:2:0
Scan type : Progressive
Bits/(Pixel*Frame) : 0.098
Stream size : 86.5 MiB (84%)
Language : English
Encoded date : UTC 2011-02-25 18:39:36
Tagged date : UTC 2011-02-24 18:39:45


Audio

Format : AAC
Format/Info : Advanced Audio Codec
Format version : Version 4
Format profile : LC
Format settings, SBR : No
Codec ID : 40
Duration : 23mn 37s => Ca fait bien 23'37, mais en demux de sortie j'ai 24'16???
Bit rate mode : Variable
Bit rate : 93.6 Kbps
Maximum bit rate : 251 Kbps
Channel(s) : 2 channels
Channel positions : L R
Sampling rate : 44.1 KHz
Resolution : 16 bits
Stream size : 15.8 MiB (15%)
Language : English
Encoded date : UTC 2011-02-25 18:39:36
Tagged date : UTC 2011-02-24 18:39:45
Il n'y a pas de question idiote, juste des idiots qui n'en posent pas.
Callewsa
 
Messages: 66
Inscription: 06 Jan 2011

Messagepar pepsilite » Dim 27 Fév, 2011 15:24

Et si tu muxes video + audio dans un MKV, c'est bon?
05/07/15 m4ng v5 est disponible au téléchargement en version finale : m4ng v5
Avatar de l’utilisateur
pepsilite
The Grinch
The Grinch
 
Messages: 22947
Inscription: 03 Fév 2007
Localisation: Chez moi le plus possible ...

Messagepar Callewsa » Dim 27 Fév, 2011 15:25

J'ai finalement utilisé audacity. En ouvrant le .aac, il m'a bien mis 23'37 et non 24'16 et j'ai pu l'exporter en format .mp3 sans problème. Je viens de remuxer et tout fonctionne! Je ne sais pas pourquoi les outils de m4ng ont planté là:-/
Dernière édition par Callewsa le Dim 27 Fév, 2011 15:28, édité 1 fois.
Il n'y a pas de question idiote, juste des idiots qui n'en posent pas.
Callewsa
 
Messages: 66
Inscription: 06 Jan 2011

Messagepar pepsilite » Dim 27 Fév, 2011 15:26

Bon le principal c'est que ça soit [Résolu]...
05/07/15 m4ng v5 est disponible au téléchargement en version finale : m4ng v5
Avatar de l’utilisateur
pepsilite
The Grinch
The Grinch
 
Messages: 22947
Inscription: 03 Fév 2007
Localisation: Chez moi le plus possible ...


Retourner vers m4ng V2

Qui est en ligne

Utilisateurs parcourant ce forum: Aucun utilisateur enregistré et 0 invités