erreur encodage mp4 avec aac

Verrouillé
cdumdum
Messages : 5
Enregistré le : mar. 01 juil., 2014 23:56

erreur encodage mp4 avec aac

Message par cdumdum » mer. 02 juil., 2014 1:47

Bonjour, je souhaite faire part d'un bug quand a un réencodage d'un fichier mp4 contenant de l'aac comme format audio (j'ai incrusté des sous titre a la vidéo originale), en effet, a l'issue de celui-ci, je n'ai pas d'audio.
Je pense que c'est peut être du a un probleme de codec car curieusement j'arrive à extraire la piste audio par l'outil mux/demux, renommer celui ci en nom_fichier_Original_0.aac, réencoder la vidéo seule avec les sous titre, puis muxer le .aac et le .264 pour avoir mon .mp4 final.

voici l'état de mes codec :

Code : Tout sélectionner

m4ng Video Analyser  [ 4.0.2200.434 - [exp 31/12/14] ]

(ChainLess: OFF)

[ Video ]
DivX : 			 - [ INTROUVABLE ]
Xvid : 			 - [ INTROUVABLE ]
X264 (cli) : 		OK [ x264 0.129.2230 1cffe9f ]
X264 (vfw) : 		OK
VP6 : 			 - [ INTROUVABLE ]
VP7 : 			 - [ INTROUVABLE ]
DivX 3.11 : 		 - [ INTROUVABLE ]
Quicktime Alternative :  - [ INTROUVABLE ]
Quicktime Lite : 	 - [ INTROUVABLE ]
CoreAVC : 		 - [ INTROUVABLE ]
Real Alternative : 	 - [ INTROUVABLE ]
Real Video 10 : 	 - [ INTROUVABLE ]
DirectVobSub : 		 - [ INTROUVABLE ]
VSfilter : 		OK [ 1.0.1.5 ]
ffdshow : 		OK [ ffdshow v1.1.3611 [2010-10-06] ]
----------------------------------------------------
[ Audio ]
CORE - AAC Codec : 	OK [ 1.2.0.575 ]
CORE - VORBIS Codec : 	 - [ INTROUVABLE ]
LAME - MP3 Codec : 	OK [ 0.9.1.0 ]
AC3 Filter : 		OK [ 1.63b ]
Oggcodecs : 		 - [ INTROUVABLE ]
OggDs : 		OK [ ??? ]
----------------------------------------------------
[ Miscs ]
Windows : 		Windows 7 Professional [Windows 7 Professional]
UAC : 			User Account Control ON
Temp : 			C:\Users\billoute\AppData\Roaming\m4ng\
Matroska Splitter : 	 - [ INTROUVABLE ]
DGindex : 		OK [ 1.5.0.0 ]
K-lite Codec Pack : 	OK [ 8.7.0 ]
m4ng Codec Pack : 	OK [ v 2.0 ]
DVDFab Platinum : 	 - [ INTROUVABLE ]
DVDFab Decrypter : 	 - [ INTROUVABLE ]
DVDFab HD Decrypter : 	 - [ INTROUVABLE ]
DVDFab : 		 - [ INTROUVABLE ]
Web Browser : 		C:\Program Files (x86)\Mozilla Firefox\firefox.exe
----------------------------------------------------
[ Avisynth ]
AVIsynth.dll 		OK [ 2.6.0.4 ]
C:\Program Files (x86)\AviSynth 2.6\plugins\*.*
 - colors_rgb.avsi OK
 - DirectShowSource.dll OK
 - TCPDeliver.dll OK
 - VSFilter.dll		?? [ Plugin externe - (peut engendrer des problèmes) ]
----------------------------------------------------
[ Matroska (MKV) ]
MKVExtractGui by DP : 	OK [ 1.6.5.300 ]
MKVtoolnix : 		 - [ INTROUVABLE ]
MKVINFOS : 		 - [ INTROUVABLE ]
DEMUX MKV : 		 - [ INTROUVABLE ]
----------------------------------------------------
Drives :
C:\ D:\ E:\ F:\ H:\ 

C: - DRIVE_FIXED
D: - DRIVE_CDROM
E: - DRIVE_FIXED
F: - DRIVE_FIXED
H: - DRIVE_CDROM

** END OF FILE - 01957 bytes

voici le media info du fichier source :

Code : Tout sélectionner

General
Count                                    : 284
Count of stream of this kind             : 1
Kind of stream                           : General
Kind of stream                           : General
Stream identifier                        : 0
Count of video streams                   : 1
Count of audio streams                   : 1
Video_Format_List                        : AVC
Video_Format_WithHint_List               : AVC
Codecs Video                             : AVC
Audio_Format_List                        : AAC
Audio_Format_WithHint_List               : AAC
Audio codecs                             : AAC LC
Complete name                            : f:\billoute\videos\FALLIN~1.MP4
Folder name                              : f:\billoute\videos
File name                                : FALLIN~1
File extension                           : MP4
Format                                   : MPEG-4
Format                                   : MPEG-4
Format/Extensions usually used           : mp4 m4v m4a m4b m4p 3gpp 3gp 3gpp2 3g2 k3g jpm jpx mqv ismv isma f4v
Commercial name                          : MPEG-4
Format profile                           : Base Media
Internet media type                      : video/mp4
Codec ID                                 : isom
Codec ID/Url                             : http://www.apple.com/quicktime/download/standalone.html
Codec                                    : MPEG-4
Codec                                    : MPEG-4
Codec/Extensions usually used            : mp4 m4v m4a m4b m4p 3gpp 3gp 3gpp2 3g2 k3g jpm jpx mqv ismv isma f4v
File size                                : 348604870
File size                                : 332 MiB
File size                                : 332 MiB
File size                                : 332 MiB
File size                                : 332 MiB
File size                                : 332.5 MiB
Duration                                 : 2509952
Duration                                 : 41mn 49s
Duration                                 : 41mn 49s 952ms
Duration                                 : 41mn 49s
Duration                                 : 00:41:49.952
Overall bit rate mode                    : VBR
Overall bit rate mode                    : Variable
Overall bit rate                         : 1111112
Overall bit rate                         : 1 111 Kbps
Stream size                              : 1299860
Stream size                              : 1.24 MiB (0%)
Stream size                              : 1 MiB
Stream size                              : 1.2 MiB
Stream size                              : 1.24 MiB
Stream size                              : 1.240 MiB
Stream size                              : 1.24 MiB (0%)
Proportion of this stream                : 0.00373
HeaderSize                               : 1299764
DataSize                                 : 347305051
FooterSize                               : 55
IsStreamable                             : Yes
Encoded date                             : UTC 2014-06-30 03:05:55
Tagged date                              : UTC 2014-06-30 03:05:55
File creation date                       : UTC 2014-06-30 15:19:52.970
File creation date (local)               : 2014-06-30 17:19:52.970
File last modification date              : UTC 2014-06-30 15:42:27.103
File last modification date (local)      : 2014-06-30 17:42:27.103

Video
Count                                    : 264
Count of stream of this kind             : 1
Kind of stream                           : Video
Kind of stream                           : Video
Stream identifier                        : 0
StreamOrder                              : 1
ID                                       : 2
ID                                       : 2
Format                                   : AVC
Format/Info                              : Advanced Video Codec
Format/Url                               : http://developers.videolan.org/x264.html
Commercial name                          : AVC
Format profile                           : High@L3.1
Format settings                          : CABAC / 5 Ref Frames
Format settings, CABAC                   : Yes
Format settings, CABAC                   : Yes
Format settings, ReFrames                : 5
Format settings, ReFrames                : 5 frames
Internet media type                      : video/H264
Codec ID                                 : avc1
Codec ID/Info                            : Advanced Video Coding
Codec ID/Url                             : http://www.apple.com/quicktime/download/standalone.html
Codec                                    : AVC
Codec                                    : AVC
Codec/Family                             : AVC
Codec/Info                               : Advanced Video Codec
Codec/Url                                : http://developers.videolan.org/x264.html
Codec/CC                                 : avc1
Codec profile                            : High@L3.1
Codec settings                           : CABAC / 5 Ref Frames
Codec settings, CABAC                    : Yes
Codec_Settings_RefFrames                 : 5
Duration                                 : 2509900
Duration                                 : 41mn 49s
Duration                                 : 41mn 49s 900ms
Duration                                 : 41mn 49s
Duration                                 : 00:41:49.900
Source duration                          : 2509924
Source duration                          : 41mn 49s
Source duration                          : 41mn 49s 924ms
Source duration                          : 41mn 49s
Source duration                          : 00:41:49.924
Bit rate                                 : 972267
Bit rate                                 : 972 Kbps
Maximum bit rate                         : 4386944
Maximum bit rate                         : 4 387 Kbps
Width                                    : 720
Width                                    : 720 pixels
Height                                   : 404
Height                                   : 404 pixels
Pixel aspect ratio                       : 1.000
Display aspect ratio                     : 1.782
Display aspect ratio                     : 16:9
Rotation                                 : 0.000
Frame rate mode                          : CFR
Frame rate mode                          : Constant
Frame rate                               : 23.976
Frame rate                               : 23.976 fps
Frame count                              : 60177
Source frame count                       : 60178
Resolution                               : 8
Resolution                               : 8 bits
Colorimetry                              : 4:2:0
Color space                              : YUV
Chroma subsampling                       : 4:2:0
Bit depth                                : 8
Bit depth                                : 8 bits
Scan type                                : Progressive
Scan type                                : Progressive
Interlacement                            : PPF
Interlacement                            : Progressive
Bits/(Pixel*Frame)                       : 0.139
Delay                                    : -83
Delay                                    : -83ms
Delay                                    : -83ms
Delay                                    : -83ms
Delay                                    : -00:00:00.083
Delay, origin                            : Container
Delay, origin                            : Container
Stream size                              : 305034801
Stream size                              : 291 MiB (88%)
Stream size                              : 291 MiB
Stream size                              : 291 MiB
Stream size                              : 291 MiB
Stream size                              : 290.9 MiB
Stream size                              : 291 MiB (88%)
Proportion of this stream                : 0.87502
Source stream size                       : 305034834
Source stream size                       : 291 MiB (88%)
Source stream size                       : 291 MiB
Source stream size                       : 291 MiB
Source stream size                       : 291 MiB
Source stream size                       : 290.9 MiB
Source stream size                       : 291 MiB (88%)
Source_StreamSize_Proportion             : 0.87502
Writing library                          : x264 - core 142 r2431 ac76440
Writing library                          : x264 core 142 r2431 ac76440
Writing library/Name                     : x264
Writing library/Version                  : core 142 r2431 ac76440
Encoding settings                        : cabac=1 / ref=5 / deblock=1:0:0 / analyse=0x3:0x113 / me=umh / subme=8 / psy=1 / psy_rd=1.00:0.00 / mixed_ref=1 / me_range=16 / chroma_me=1 / trellis=1 / 8x8dct=1 / cqm=0 / deadzone=21,11 / fast_pskip=1 / chroma_qp_offset=-2 / threads=18 / lookahead_threads=3 / sliced_threads=0 / nr=0 / decimate=1 / interlaced=0 / bluray_compat=0 / constrained_intra=0 / bframes=3 / b_pyramid=2 / b_adapt=2 / b_bias=0 / direct=3 / weightb=1 / open_gop=0 / weightp=2 / keyint=250 / keyint_min=23 / scenecut=40 / intra_refresh=0 / rc_lookahead=50 / rc=crf / mbtree=1 / crf=19.0 / qcomp=0.60 / qpmin=0 / qpmax=69 / qpstep=4 / ip_ratio=1.40 / aq=1:1.00
Encoded date                             : UTC 2014-06-30 02:17:56
Tagged date                              : UTC 2014-06-30 03:05:56
Matrix coefficients                      : BT.709

Audio
Count                                    : 222
Count of stream of this kind             : 1
Kind of stream                           : Audio
Kind of stream                           : Audio
Stream identifier                        : 0
StreamOrder                              : 0
ID                                       : 1
ID                                       : 1
Format                                   : AAC
Format/Info                              : Advanced Audio Codec
Commercial name                          : AAC
Format profile                           : LC
Format settings, SBR                     : No (Explicit)
Format settings, SBR                     : No (Explicit)
Codec ID                                 : 40
Codec                                    : AAC LC
Codec                                    : AAC LC
Codec/Family                             : AAC
Codec/CC                                 : 40
Duration                                 : 2509952
Duration                                 : 41mn 49s
Duration                                 : 41mn 49s 952ms
Duration                                 : 41mn 49s
Duration                                 : 00:41:49.952
Bit rate mode                            : VBR
Bit rate mode                            : Variable
Bit rate                                 : 132300
Bit rate                                 : 132 Kbps
Maximum bit rate                         : 175000
Maximum bit rate                         : 175 Kbps
Channel count                            : 2
Channel count                            : 2 channels
Channel positions                        : Front: L R
Channel positions                        : 2/0/0
Sampling rate                            : 48000
Sampling rate                            : 48.0 KHz
Samples count                            : 120477696
Frame count                              : 117654
Compression mode                         : Lossy
Compression mode                         : Lossy
Delay                                    : 0
Delay                                    : 00:00:00.000
Delay, origin                            : Container
Delay, origin                            : Container
Delay relative to video                  : 83
Delay relative to video                  : 83ms
Delay relative to video                  : 83ms
Delay relative to video                  : 83ms
Delay relative to video                  : 00:00:00.083
Video0 delay                             : 83
Video0 delay                             : 83ms
Video0 delay                             : 83ms
Video0 delay                             : 83ms
Video0 delay                             : 00:00:00.083
Stream size                              : 42270209
Stream size                              : 40.3 MiB (12%)
Stream size                              : 40 MiB
Stream size                              : 40 MiB
Stream size                              : 40.3 MiB
Stream size                              : 40.31 MiB
Stream size                              : 40.3 MiB (12%)
Proportion of this stream                : 0.12126
Encoded date                             : UTC 2014-06-30 03:05:55
Tagged date                              : UTC 2014-06-30 03:05:56
De plus, j'ai une erreur lorsque je veux le passer au graphstudio

Code : Tout sélectionner

Fichier de rendu F:\billoute\Videos\falling skies_402.mp4
Le fichier a un type de média 0x00000000... un sous-type 0x00000000...
Le filtre source clsid est 0xf4670def...
Échec de la fonction CoCreateInstance pour le filtre source, hr=0x80040154
RenderFile : échec de l’ajout du filtre source hr=0x80040241

voici les jobs de m4ng. on notera que j'aurais essayé d'extraire l"audio seul mais sans résultat

Code : Tout sélectionner

01/07 00:26:40 --- m4ng started ---
01/07 00:27:36 *** m4ng  [ 4.0.2200.434 - [exp 31/12/14] ]
01/07 00:27:36 *** shutdown_off ***
01/07 00:27:36 Transcodage direct piste audio 1
01/07 00:27:36 Encodage audio en cours :: MP3
01/07 00:27:39 Audio t1 : No
01/07 00:27:39 ---
01/07 00:28:31 *** m4ng  [ 4.0.2200.434 - [exp 31/12/14] ]
01/07 00:28:31 *** shutdown_off ***
01/07 00:28:31 Transcodage direct piste audio 1
01/07 00:28:31 Encodage audio en cours :: AC3
01/07 00:28:33 Audio t1 : Ok
01/07 00:28:33 ---
01/07 00:36:02 --- m4ng closed ---
01/07 00:38:50 *** m4ng  [ 3.2.2.0 - SubsWay - (exp 31/12/20) ]
01/07 00:38:50 *** shutdown_off ***
01/07 00:38:50 Transcodage direct piste audio 1
01/07 00:38:50 Encodage audio en cours :: MP3
01/07 00:38:52 Audio t1 : No
01/07 00:38:52 ---
01/07 00:39:53 *** m4ng  [ 3.2.2.0 - SubsWay - (exp 31/12/20) ]
01/07 00:39:53 *** shutdown_off ***
01/07 00:39:53 Transcodage direct piste audio 1
01/07 00:39:53 Encodage audio en cours :: AAC
01/07 00:39:54 Audio t1 : No
01/07 00:39:54 ---
01/07 00:45:31 --- m4ng started ---
01/07 00:50:49 *** m4ng  [ 4.0.2200.434 - [exp 31/12/14] ]
01/07 00:50:49 *** shutdown_off ***
01/07 00:50:49 part : 1 - 0 / 60177
01/07 00:50:49 OUT2_falling skies_402.mp4
01/07 00:50:49 Has_audio : 1
01/07 00:50:49 Transcodage direct piste audio 1
01/07 00:50:49 Encodage audio en cours :: AAC
01/07 00:50:52 video_r : 1105 kbps
01/07 00:50:52 Encodage en cours :: Passe 1/1
01/07 00:50:55 Video : Ok
01/07 00:50:55 Mux :: MP4
 F:\Dumont\Videos\OUT2_falling skies_402.mp4
01/07 00:50:58 Video mux : No
01/07 00:50:58 ---
01/07 01:09:55 *** m4ng  [ 4.0.2200.434 - [exp 31/12/14] ]
01/07 01:09:55 *** shutdown_off ***
01/07 01:09:55 Transcodage direct piste audio 1
01/07 01:09:55 Encodage audio en cours :: AAC
01/07 01:09:59 Audio t1 : No
01/07 01:09:59 ---
01/07 01:10:46 *** m4ng  [ 4.0.2200.434 - [exp 31/12/14] ]
01/07 01:10:46 *** shutdown_off ***
01/07 01:10:46 Transcodage direct piste audio 1
01/07 01:10:46 Encodage audio en cours :: AAC
01/07 01:10:49 Audio t1 : No
01/07 01:10:49 ---
01/07 01:39:12 *** m4ng  [ 4.0.2200.434 - [exp 31/12/14] ]
01/07 01:39:12 *** shutdown_off ***
01/07 01:39:12 Transcodage direct piste audio 1
01/07 01:39:12 Encodage audio en cours :: AAC
01/07 01:39:16 Audio t1 : No
01/07 01:39:16 ---
01/07 01:50:50 *** m4ng  [ 4.0.2200.434 - [exp 31/12/14] ]
01/07 01:50:50 *** shutdown_off ***
01/07 01:50:50 Demux en cours :: 
 Track1 : f:\dumont\videos\falling skies_402_t1.aac
01/07 01:50:53 No
01/07 01:50:53 ---
01/07 01:53:04 *** m4ng  [ 4.0.2200.434 - [exp 31/12/14] ]
01/07 01:53:04 *** shutdown_off ***
01/07 01:53:04 Extraction audio en cours ::
01/07 01:53:07 Audio t1 : No
01/07 01:53:07 ---
01/07 01:54:09 *** m4ng  [ 4.0.2200.434 - [exp 31/12/14] ]
01/07 01:54:09 *** shutdown_off ***
01/07 01:54:09 Mux :: MP4
 F:\Dumont\Videos\OUT2_falling skies_402.mp4
01/07 01:54:09 Video mux : No
01/07 01:54:09 ---
01/07 01:55:19 *** m4ng  [ 4.0.2200.434 - [exp 31/12/14] ]
01/07 01:55:19 *** shutdown_off ***
01/07 01:55:19 video_r : 1037 kbps
01/07 01:55:19 Encodage en cours :: Passe 1/1
01/07 02:17:07 Video : Ok
01/07 02:17:07 ---
01/07 02:29:41 *** m4ng  [ 4.0.2200.434 - [exp 31/12/14] ]
01/07 02:29:41 *** shutdown_off ***
01/07 02:29:41 Mux :: MP4
 F:\Dumont\Videos\OUT2_falling skies_402.mp4
01/07 02:29:54 Video mux : Ok
01/07 02:29:54 ---
01/07 02:40:04 *** m4ng  [ 4.0.2200.434 - [exp 31/12/14] ]
01/07 02:40:04 *** shutdown_off ***
01/07 02:40:04 Mux :: MP4
 F:\Dumont\Videos\OUT2_falling skies_402.mp4
01/07 02:40:21 Video mux : Ok
01/07 02:40:21 ---
01/07 02:46:18 *** m4ng  [ 4.0.2200.434 - [exp 31/12/14] ]
01/07 02:46:18 *** shutdown_off ***
01/07 02:46:18 part : 1 - 0 / 60177
01/07 02:46:18 OUT_falling skies_402.mp4
01/07 02:46:18 Has_audio : 1
01/07 02:46:18 Transcodage direct piste audio 1
01/07 02:46:18 Encodage audio en cours :: AAC
01/07 02:46:22 video_r : 1037 kbps
01/07 02:46:22 Encodage en cours :: Passe 1/1
01/07 03:10:05 Video : Ok
01/07 03:10:05 Mux :: MP4
 F:\Dumont\Videos\OUT_falling skies_402.mp4
01/07 03:10:17 Video mux : Ok
01/07 03:10:17 ---
merci de votre attention et de ce pavé un peu lourd. derniere chose, avec un autre éditeur de vidéo (SUPER pour pas le nommer) j'ai réussi a réencoder le fichier source en mkv avec piste audio en mp3, et la j'ai bien réussi a extraire le fichier audio avec m4ng.
Avatar du membre
pepsilite
The Grinch
The Grinch
Messages : 23187
Enregistré le : sam. 03 févr., 2007 19:13
Localisation : Chez moi le plus possible ...

Message par pepsilite » mer. 02 juil., 2014 13:13

Salut à toi
Déjà est-ce que tu as essayé en mode autonome de m4ng?
J'ai essayé de mon coté et à chaque tentative, j'ai du son à l'arrivée. Mais déjà si graphstudio se casse les dents sur la vidéo source, c'est qu'il te manque un "truc" quelque part, d'où le test du mode autonome...
06/01/2020 m4ng v6 est disponible au téléchargement en version finale : m4ng v6
Avatar du membre
Ducke
Administrateur
Administrateur
Messages : 8628
Enregistré le : jeu. 08 févr., 2007 18:02

Message par Ducke » jeu. 03 juil., 2014 18:21

salut à vous :yeap:

Je suppose que ton dossier de travail f:\billoute\videos\FALLIN~1.MP4 a un accent sur vidéos. chez certaines personnes cela peux faire bloquer, par contre ça n'explique pas graphstudio.
Image Image
Avant de poster votre problème, venez faire un tour dans la FAQ voir si la solution ne s'y trouve pas
INFOS UTILES
Image
cdumdum
Messages : 5
Enregistré le : mar. 01 juil., 2014 23:56

Message par cdumdum » sam. 05 juil., 2014 12:15

salut a tous,
bon en mode autonaume ca marche (même si c'est un peu plus lent le ré encodage)
sinon pour graphstudio, j'ai muxé en format mkv (x264 + aac) et que je le passe dans graphstudio, la ca marche :



alors que en mp4 ca marche pas. probleme d'encodage ou de decodage du format mp4 ?

voici le fichier pour graphstudio si cela peux aider a comprendre le probleme

http://paf.im/oZ9zb

[edit] autre piste : je me suis demandé si c'était peut etre la faute de l'audio alors j'ai encoder avec du mp3, toujours en mp4 comme conteneur...le son est uniquement lu avec vlc...., la vidéo fait toujours cracher graphstudio...
Modifié en dernier par cdumdum le sam. 05 juil., 2014 14:29, modifié 1 fois.
Avatar du membre
Subbat
Administrateur
Administrateur
Messages : 8706
Enregistré le : jeu. 11 déc., 2008 20:12
Localisation : Quelque part... dans le centre de la France...

Message par Subbat » sam. 05 juil., 2014 12:53

Salut,

Ton problème vient forcément du décodage si graphstudio n'arrive pas à le lire... Pas forcément pour tous les mp4, mais pour celui en question c'est sur...
Avatar du membre
Ducke
Administrateur
Administrateur
Messages : 8628
Enregistré le : jeu. 08 févr., 2007 18:02

Message par Ducke » sam. 05 juil., 2014 13:47

Chez moi un mp4 dans graph studio passe en premier par haali media splitter.
Tu devrais désactiver tes filtres Microsoft aussi et utiliser ceux de ffdshow par exemple http://www.majorgeeks.com/index.php?ct= ... n=download&
Image Image
Avant de poster votre problème, venez faire un tour dans la FAQ voir si la solution ne s'y trouve pas
INFOS UTILES
Image
cdumdum
Messages : 5
Enregistré le : mar. 01 juil., 2014 23:56

Message par cdumdum » sam. 05 juil., 2014 14:31

désactiver les filtres microsoft...comment on fait ca ? parce que le parametrage des codecs et moi ca fait 5....
Avatar du membre
Ducke
Administrateur
Administrateur
Messages : 8628
Enregistré le : jeu. 08 févr., 2007 18:02

Message par Ducke » sam. 05 juil., 2014 15:15

avec le logiciel dont j'ai mis le lien dans mon dernier post et installes haali media splitter tu devrais pouvoir charger les mp4 dans m4ng ensuite :yeap:
Image Image
Avant de poster votre problème, venez faire un tour dans la FAQ voir si la solution ne s'y trouve pas
INFOS UTILES
Image
cdumdum
Messages : 5
Enregistré le : mar. 01 juil., 2014 23:56

Message par cdumdum » sam. 05 juil., 2014 15:39

Bon, de retour en fait,
J'ai réglé le pobleme du décodeur mp4 : il n'était plus réglé sur haali splitter, donc ca c'est fait, la vidéo ne fait plus cracher graph studio. Reste le probleme du son : meme quand il y a neroaacenc de coché, c'est haali qui encode le son pendant...2s... et qui plante apres...
Avatar du membre
Subbat
Administrateur
Administrateur
Messages : 8706
Enregistré le : jeu. 11 déc., 2008 20:12
Localisation : Quelque part... dans le centre de la France...

Message par Subbat » dim. 06 juil., 2014 13:32

Hello,

Haali n'est pas un encodeur ou décodeur... c'est un splitter... si le mode normal n'arrive pas à encoder le son, c'est qu'il n'est pas décodé...
Verrouillé