[Résolu] Error creating mediainfo file

Pour les retours sur la v5 uniquement ...
Industry
Messages : 15
Enregistré le : ven. 04 oct., 2019 9:35

[Résolu] Error creating mediainfo file

Message par Industry » ven. 04 oct., 2019 9:57

Bonjour, ayant essayé de trouvé le problème je ne sais plus vers quoi m'orienter...
J'utilise m4ng depuis sa toute première version et je n'avait jamais rencontré de problème.
J'ai donc installé sa toute dernière version, mais quand j'essaye d'ouvrir une vidéo ça m'affiche un message d'erreur "Error creating mediainfo file" j'ai essayé de désactivé l'UAC sous w10, aussi réinstaller les codecs un par un et aussi m4ng même sous la V4 j'ai cette erreur.

Voici un screen de l'erreur en question :

Image

D'avance, merci de votre aide.
Modifié en dernier par Industry le dim. 06 oct., 2019 16:28, modifié 1 fois.
Avatar du membre
Subbat
Administrateur
Administrateur
Messages : 8756
Enregistré le : jeu. 11 déc., 2008 20:12
Localisation : Quelque part... dans le centre de la France...

Re: Error creating mediainfo file

Message par Subbat » ven. 04 oct., 2019 12:07

Tu l'as trouvé où cette version... parce que ce n'est pas la dernière en date...
La dernière version est à télécharger ici : http://www.m4ng.fr/telechargement
A la fin de l'installation de m4ng il te demande si tu veux installer lame et avisynth... cliques sur oui, même s'ils sont déjà installé chez toi...
Industry
Messages : 15
Enregistré le : ven. 04 oct., 2019 9:35

Re: Error creating mediainfo file

Message par Industry » ven. 04 oct., 2019 16:39

Merci pour la réponse je l'ai trouvé via google, j'ai installé la version que tu m"as donner mais toujours la même erreur.
Avatar du membre
Subbat
Administrateur
Administrateur
Messages : 8756
Enregistré le : jeu. 11 déc., 2008 20:12
Localisation : Quelque part... dans le centre de la France...

Re: Error creating mediainfo file

Message par Subbat » sam. 05 oct., 2019 11:53

Tu as bien installer avisynth en fin de processus d'installation de m4ng ?
Industry
Messages : 15
Enregistré le : ven. 04 oct., 2019 9:35

Re: Error creating mediainfo file

Message par Industry » sam. 05 oct., 2019 12:02

Oui je l'ai fait, j'ai remarqué quand executant le programme en administrateur ça me détecte maintenant les codecs, mais toujours la même erreur à l'importe et ça me fais ça, j'ai fait le test sous la V4 pour voir mais rien ne change.

Image
Avatar du membre
Subbat
Administrateur
Administrateur
Messages : 8756
Enregistré le : jeu. 11 déc., 2008 20:12
Localisation : Quelque part... dans le centre de la France...

Re: Error creating mediainfo file

Message par Subbat » sam. 05 oct., 2019 12:56

Aucun intérêt à tester la v4...
C'est surtout le setup d'installation qu'il faut exécuter en administrateur
Industry
Messages : 15
Enregistré le : ven. 04 oct., 2019 9:35

Re: Error creating mediainfo file

Message par Industry » sam. 05 oct., 2019 13:37

Autant tenter quand même, j'ai testé aussi en admin setup rien ne change.
Avatar du membre
Subbat
Administrateur
Administrateur
Messages : 8756
Enregistré le : jeu. 11 déc., 2008 20:12
Localisation : Quelque part... dans le centre de la France...

Re: Error creating mediainfo file

Message par Subbat » sam. 05 oct., 2019 17:00

Essaies de supprimer le dossier de travail de m4ng pour voir...
Industry
Messages : 15
Enregistré le : ven. 04 oct., 2019 9:35

Re: Error creating mediainfo file

Message par Industry » sam. 05 oct., 2019 17:09

C'est fait mais toujours le même problème... :/
Avatar du membre
Subbat
Administrateur
Administrateur
Messages : 8756
Enregistré le : jeu. 11 déc., 2008 20:12
Localisation : Quelque part... dans le centre de la France...

Re: Error creating mediainfo file

Message par Subbat » sam. 05 oct., 2019 17:54

Tu peux aller dans le dossier de travail de m4ng (à l'aide du bouton (?) de m4ng)...
Dans ce dossier tu cherches le fichier mediainfo.bat
Tu fais un clic droit puis modifier... tu recopies son contenu ici...
Tu ajoutes à la ligne le mot "pause" (sans les guillemets)... tu enregistres puis tu lances ce mediainfo.bat en double-cliquant dessus... et tu nous dis ce qu'il y aura d'écrit dans la fenêtre dos qui se sera ouverte...
Industry
Messages : 15
Enregistré le : ven. 04 oct., 2019 9:35

Re: Error creating mediainfo file

Message par Industry » sam. 05 oct., 2019 19:05

Code : Tout sélectionner

chcp 1252
C:\PROGRA~2\m4ng_v5\system\mediainfo.exe --full --LogFile="C:\Users\Jason&Amélie\AppData\Roaming\m4ng\mediainfo.txt" "E:\-Kill.Bill.Vol.1.2003.MULTi.TRUEFRENCH.720p.HDLight.x264.mkv" 
&

Code : Tout sélectionner

General
Count                                    : 323
Count of stream of this kind             : 1
Kind of stream                           : General
Kind of stream                           : General
Stream identifier                        : 0
Unique ID                                : 251873065985542477171818901700076601686
Unique ID                                : 251873065985542477171818901700076601686 (0xBD7CFCED58AA2F7A8C88422A50F38156)
Count of video streams                   : 1
Count of audio streams                   : 2
Count of text streams                    : 2
Video_Format_List                        : AVC
Video_Format_WithHint_List               : AVC
Codecs Video                             : AVC
Video_Language_List                      : English
Audio_Format_List                        : AAC / AAC
Audio_Format_WithHint_List               : AAC / AAC
Audio codecs                             : AAC LC / AAC LC
Audio_Language_List                      : French / English
Text_Format_List                         : ASS / ASS
Text_Format_WithHint_List                : ASS / ASS
Text codecs                              : ASS / ASS
Text_Language_List                       : French / French
Complete name                            : E:\-Kill.Bill.Vol.1.2003.MULTi.TRUEFRENCH.720p.HDLight.x264.mkv
Folder name                              : E:
File name                                : -Kill.Bill.Vol.1.2003.MULTi.TRUEFRENCH.720p.HDLight.x264
File extension                           : mkv
Format                                   : Matroska
Format                                   : Matroska
Format/Url                               : http://packs.matroska.org/
Format/Extensions usually used           : mkv mk3d mka mks
Commercial name                          : Matroska
Format version                           : Version 4 / Version 2
Codec                                    : Matroska
Codec                                    : Matroska
Codec/Url                                : http://packs.matroska.org/
Codec/Extensions usually used            : mkv mk3d mka mks
File size                                : 1807466784
File size                                : 1.68 GiB
File size                                : 2 GiB
File size                                : 1.7 GiB
File size                                : 1.68 GiB
File size                                : 1.683 GiB
Duration                                 : 6644394
Duration                                 : 1h 50mn
Duration                                 : 1h 50mn 44s 394ms
Duration                                 : 1h 50mn
Duration                                 : 01:50:44.394
Duration                                 : 01:50:39;22
Duration                                 : 01:50:44.394 (01:50:39;22)
Overall bit rate                         : 2176231
Overall bit rate                         : 2 176 Kbps
Frame rate                               : 23.976
Frame rate                               : 23.976 fps
Frame count                              : 159160
Stream size                              : 2827098
Stream size                              : 2.70 MiB (0%)
Stream size                              : 3 MiB
Stream size                              : 2.7 MiB
Stream size                              : 2.70 MiB
Stream size                              : 2.696 MiB
Stream size                              : 2.70 MiB (0%)
Proportion of this stream                : 0.00156
Title                                    : Kill.Bill.Vol.1.2003.MULTi.TRUEFRENCH.720p.HDLight.x264-BSD
Movie name                               : Kill.Bill.Vol.1.2003.MULTi.TRUEFRENCH.720p.HDLight.x264-BSD
Encoded date                             : UTC 2017-01-01 17:56:49
File creation date                       : UTC 2019-08-18 15:14:26.607
File creation date (local)               : 2019-08-18 17:14:26.607
File last modification date              : UTC 2019-08-18 15:16:37.827
File last modification date (local)      : 2019-08-18 17:16:37.827
Writing application                      : mkvmerge v9.0.1 ('Obstacles') 64bit
Writing application                      : mkvmerge v9.0.1 ('Obstacles') 64bit
Writing library                          : libebml v1.3.3 + libmatroska v1.4.4
Writing library                          : libebml v1.3.3 + libmatroska v1.4.4
Attachments                              : LATO-BLACK_0.ttf

Video
Count                                    : 339
Count of stream of this kind             : 1
Kind of stream                           : Video
Kind of stream                           : Video
Stream identifier                        : 0
StreamOrder                              : 0
ID                                       : 1
ID                                       : 1
Unique ID                                : 1
Format                                   : AVC
Format/Info                              : Advanced Video Codec
Format/Url                               : http://developers.videolan.org/x264.html
Commercial name                          : AVC
Format profile                           : High@L4.1
Format settings                          : CABAC / 6 Ref Frames
Format settings, CABAC                   : Yes
Format settings, CABAC                   : Yes
Format settings, ReFrames                : 6
Format settings, ReFrames                : 6 frames
Internet media type                      : video/H264
Codec ID                                 : V_MPEG4/ISO/AVC
Codec ID/Url                             : http://ffdshow-tryout.sourceforge.net/
Codec                                    : V_MPEG4/ISO/AVC
Codec                                    : AVC
Codec/Family                             : AVC
Codec/Info                               : Advanced Video Codec
Codec/Url                                : http://ffdshow-tryout.sourceforge.net/
Codec profile                            : High@L4.1
Codec settings                           : CABAC / 6 Ref Frames
Codec settings, CABAC                    : Yes
Codec_Settings_RefFrames                 : 6
Duration                                 : 6638299.000000
Duration                                 : 1h 50mn
Duration                                 : 1h 50mn 38s 299ms
Duration                                 : 1h 50mn
Duration                                 : 01:50:38.299
Duration                                 : 01:50:39;22
Duration                                 : 01:50:38.299 (01:50:39;22)
Bit rate                                 : 1741935
Bit rate                                 : 1 742 Kbps
Width                                    : 1280
Width                                    : 1 280 pixels
Height                                   : 536
Height                                   : 536 pixels
Stored_Height                            : 544
Sampled_Width                            : 1280
Sampled_Height                           : 536
Pixel aspect ratio                       : 1.005
Display aspect ratio                     : 2.399
Display aspect ratio                     : 2.40:1
Original display aspect ratio            : 2.400
Original display aspect ratio            : 2.40:1
Frame rate mode                          : CFR
Frame rate mode                          : Constant
Frame rate                               : 23.976
Frame rate                               : 23.976 (24000/1001) fps
FrameRate_Num                            : 24000
FrameRate_Den                            : 1001
Frame count                              : 159160
Resolution                               : 8
Resolution                               : 8 bits
Colorimetry                              : 4:2:0
Color space                              : YUV
Chroma subsampling                       : 4:2:0
Bit depth                                : 8
Bit depth                                : 8 bits
Scan type                                : Progressive
Scan type                                : Progressive
Interlacement                            : PPF
Interlacement                            : Progressive
Bits/(Pixel*Frame)                       : 0.106
Delay                                    : 0
Delay                                    : 00:00:00.000
Delay, origin                            : Container
Delay, origin                            : Container
Stream size                              : 1445436480
Stream size                              : 1.35 GiB (80%)
Stream size                              : 1 GiB
Stream size                              : 1.3 GiB
Stream size                              : 1.35 GiB
Stream size                              : 1.346 GiB
Stream size                              : 1.35 GiB (80%)
Proportion of this stream                : 0.79970
Writing library                          : x264 - core 148 r2744M b97ae06
Writing library                          : x264 core 148 r2744M b97ae06
Encoded_Library_Name                     : x264
Encoded_Library_Version                  : core 148 r2744M b97ae06
Encoding settings                        : cabac=1 / ref=6 / deblock=1:-1:-1 / analyse=0x3:0x133 / me=hex / subme=8 / psy=1 / psy_rd=1.00:0.20 / mixed_ref=1 / me_range=16 / chroma_me=1 / trellis=0 / 8x8dct=1 / cqm=0 / deadzone=21,11 / fast_pskip=1 / chroma_qp_offset=-2 / threads=9 / lookahead_threads=2 / sliced_threads=0 / nr=0 / decimate=1 / interlaced=0 / bluray_compat=0 / constrained_intra=0 / bframes=6 / b_pyramid=2 / b_adapt=2 / b_bias=0 / direct=1 / weightb=1 / open_gop=0 / weightp=2 / keyint=25 / keyint_min=13 / scenecut=40 / intra_refresh=0 / rc_lookahead=25 / rc=crf / mbtree=1 / crf=21.0 / qcomp=0.60 / qpmin=0 / qpmax=69 / qpstep=4 / vbv_maxrate=24000 / vbv_bufsize=24000 / crf_max=30.0 / nal_hrd=none / filler=0 / ip_ratio=1.40 / aq=1:1.00
Language                                 : en
Language                                 : English
Language                                 : English
Language                                 : en
Language                                 : eng
Language                                 : en
Default                                  : Yes
Default                                  : Yes
Forced                                   : No
Forced                                   : No
Color range                              : Limited
colour_description_present               : Yes
Color primaries                          : BT.709
Transfer characteristics                 : BT.709
Matrix coefficients                      : BT.709

Audio #1
Count                                    : 279
Count of stream of this kind             : 2
Kind of stream                           : Audio
Kind of stream                           : Audio
Stream identifier                        : 0
Stream identifier                        : 1
StreamOrder                              : 1
ID                                       : 2
ID                                       : 2
Unique ID                                : 2
Format                                   : AAC
Format/Info                              : Advanced Audio Codec
Commercial name                          : AAC
Format profile                           : LC
Codec ID                                 : A_AAC
Codec                                    : AAC LC
Codec                                    : AAC LC
Codec/Family                             : AAC
Duration                                 : 6644394.000000
Duration                                 : 1h 50mn
Duration                                 : 1h 50mn 44s 394ms
Duration                                 : 1h 50mn
Duration                                 : 01:50:44.394
Duration                                 : 01:50:26:34
Duration                                 : 01:50:44.394 (01:50:26:34)
Bit rate                                 : 216486
Bit rate                                 : 216 Kbps
Channel(s)                               : 6
Channel(s)                               : 6 channels
Channel positions                        : Front: L C R, Side: L R, LFE
Channel positions                        : 3/2/0.1
ChannelLayout                            : C L R Ls Rs LFE
Samples per frame                        : 1024
Sampling rate                            : 48000
Sampling rate                            : 48.0 KHz
Samples count                            : 318930912
Frame rate                               : 46.875
Frame rate                               : 46.875 fps (1024 spf)
Frame count                              : 311456
Compression mode                         : Lossy
Compression mode                         : Lossy
Delay                                    : 0
Delay                                    : 00:00:00.000
Delay, origin                            : Container
Delay, origin                            : Container
Delay relative to video                  : 0
Delay relative to video                  : 00:00:00.000
Video0 delay                             : 0
Video0 delay                             : 00:00:00.000
Stream size                              : 179802735
Stream size                              : 171 MiB (10%)
Stream size                              : 171 MiB
Stream size                              : 171 MiB
Stream size                              : 171 MiB
Stream size                              : 171.5 MiB
Stream size                              : 171 MiB (10%)
Proportion of this stream                : 0.09948
Title                                    : VFF AAC 5.1 VBR
Language                                 : fr
Language                                 : French
Language                                 : French
Language                                 : fr
Language                                 : fra
Language                                 : fr
Default                                  : Yes
Default                                  : Yes
Forced                                   : No
Forced                                   : No

Audio #2
Count                                    : 279
Count of stream of this kind             : 2
Kind of stream                           : Audio
Kind of stream                           : Audio
Stream identifier                        : 1
Stream identifier                        : 2
StreamOrder                              : 2
ID                                       : 3
ID                                       : 3
Unique ID                                : 3
Format                                   : AAC
Format/Info                              : Advanced Audio Codec
Commercial name                          : AAC
Format profile                           : LC
Codec ID                                 : A_AAC
Codec                                    : AAC LC
Codec                                    : AAC LC
Codec/Family                             : AAC
Duration                                 : 6644394.000000
Duration                                 : 1h 50mn
Duration                                 : 1h 50mn 44s 394ms
Duration                                 : 1h 50mn
Duration                                 : 01:50:44.394
Duration                                 : 01:50:26:34
Duration                                 : 01:50:44.394 (01:50:26:34)
Bit rate                                 : 215942
Bit rate                                 : 216 Kbps
Channel(s)                               : 6
Channel(s)                               : 6 channels
Channel positions                        : Front: L C R, Side: L R, LFE
Channel positions                        : 3/2/0.1
ChannelLayout                            : C L R Ls Rs LFE
Samples per frame                        : 1024
Sampling rate                            : 48000
Sampling rate                            : 48.0 KHz
Samples count                            : 318930912
Frame rate                               : 46.875
Frame rate                               : 46.875 fps (1024 spf)
Frame count                              : 311456
Compression mode                         : Lossy
Compression mode                         : Lossy
Delay                                    : 0
Delay                                    : 00:00:00.000
Delay, origin                            : Container
Delay, origin                            : Container
Delay relative to video                  : 0
Delay relative to video                  : 00:00:00.000
Video0 delay                             : 0
Video0 delay                             : 00:00:00.000
Stream size                              : 179351279
Stream size                              : 171 MiB (10%)
Stream size                              : 171 MiB
Stream size                              : 171 MiB
Stream size                              : 171 MiB
Stream size                              : 171.0 MiB
Stream size                              : 171 MiB (10%)
Proportion of this stream                : 0.09923
Title                                    : VO AAC 5.1 VBR
Language                                 : en
Language                                 : English
Language                                 : English
Language                                 : en
Language                                 : eng
Language                                 : en
Default                                  : No
Default                                  : No
Forced                                   : No
Forced                                   : No

Text #1
Count                                    : 241
Count of stream of this kind             : 2
Kind of stream                           : Text
Kind of stream                           : Text
Stream identifier                        : 0
Stream identifier                        : 1
StreamOrder                              : 3
ID                                       : 4
ID                                       : 4
Unique ID                                : 11820417868907345333
Format                                   : ASS
Format/Url                               : http://ffdshow.sourceforge.net/tikiwiki/tiki-index.php?page=Getting+ffdshow
Commercial name                          : ASS
Codec ID                                 : S_TEXT/ASS
Codec ID/Info                            : Advanced Sub Station Alpha
Codec                                    : S_TEXT/ASS
Codec                                    : ASS
Codec/Info                               : Advanced Sub Station Alpha
Duration                                 : 6117570.000000
Duration                                 : 1h 41mn
Duration                                 : 1h 41mn 57s 570ms
Duration                                 : 1h 41mn
Duration                                 : 01:41:57.570
Duration                                 : 01:41:57.570
Bit rate                                 : 11
Bit rate                                 : 11 bps
Frame rate                               : 0.025
Frame rate                               : 0.025 fps
Frame count                              : 154
Count of elements                        : 154
Compression mode                         : Lossless
Compression mode                         : Lossless
Stream size                              : 8931
Stream size                              : 8.72 KiB (0%)
Stream size                              : 9 KiB
Stream size                              : 8.7 KiB
Stream size                              : 8.72 KiB
Stream size                              : 8.722 KiB
Stream size                              : 8.72 KiB (0%)
Proportion of this stream                : 0.00000
Title                                    : [Francais (Forcé)]
Language                                 : fr
Language                                 : French
Language                                 : French
Language                                 : fr
Language                                 : fra
Language                                 : fr
Default                                  : Yes
Default                                  : Yes
Forced                                   : Yes
Forced                                   : Yes

Text #2
Count                                    : 241
Count of stream of this kind             : 2
Kind of stream                           : Text
Kind of stream                           : Text
Stream identifier                        : 1
Stream identifier                        : 2
StreamOrder                              : 4
ID                                       : 5
ID                                       : 5
Unique ID                                : 15501842230270367890
Format                                   : ASS
Format/Url                               : http://ffdshow.sourceforge.net/tikiwiki/tiki-index.php?page=Getting+ffdshow
Commercial name                          : ASS
Codec ID                                 : S_TEXT/ASS
Codec ID/Info                            : Advanced Sub Station Alpha
Codec                                    : S_TEXT/ASS
Codec                                    : ASS
Codec/Info                               : Advanced Sub Station Alpha
Duration                                 : 6610690.000000
Duration                                 : 1h 50mn
Duration                                 : 1h 50mn 10s 690ms
Duration                                 : 1h 50mn
Duration                                 : 01:50:10.690
Duration                                 : 01:50:10.690
Bit rate                                 : 48
Bit rate                                 : 48 bps
Frame rate                               : 0.101
Frame rate                               : 0.101 fps
Frame count                              : 665
Count of elements                        : 665
Compression mode                         : Lossless
Compression mode                         : Lossless
Stream size                              : 40261
Stream size                              : 39.3 KiB (0%)
Stream size                              : 39 KiB
Stream size                              : 39 KiB
Stream size                              : 39.3 KiB
Stream size                              : 39.32 KiB
Stream size                              : 39.3 KiB (0%)
Proportion of this stream                : 0.00002
Title                                    : [Francais (Complet)]
Language                                 : fr
Language                                 : French
Language                                 : French
Language                                 : fr
Language                                 : fra
Language                                 : fr
Default                                  : No
Default                                  : No
Forced                                   : No
Forced                                   : No
Modifié en dernier par Subbat le sam. 05 oct., 2019 19:29, modifié 1 fois.
Raison : Ajout de balise <code>
Avatar du membre
Subbat
Administrateur
Administrateur
Messages : 8756
Enregistré le : jeu. 11 déc., 2008 20:12
Localisation : Quelque part... dans le centre de la France...

Re: Error creating mediainfo file

Message par Subbat » sam. 05 oct., 2019 19:31

Donc si je cromprends bien, en lançant le .bat à la main, ça fonctionne...
Peux-tu regarder s'il y a bien un fichier mediainfo.tx à cet endroit là : C:\Users\Jason&Amélie\AppData\Roaming\m4ng\mediainfo.txt
Industry
Messages : 15
Enregistré le : ven. 04 oct., 2019 9:35

Re: Error creating mediainfo file

Message par Industry » sam. 05 oct., 2019 19:50

Oui c'est ça et oui aussi y'a bien le fichier mediainfo présent.
Avatar du membre
Subbat
Administrateur
Administrateur
Messages : 8756
Enregistré le : jeu. 11 déc., 2008 20:12
Localisation : Quelque part... dans le centre de la France...

Re: Error creating mediainfo file

Message par Subbat » sam. 05 oct., 2019 20:14

Alors je ne comprend pas ce qui se passe... parce que m4ng ne fait que lancer le .bat que tu as lancé à la main...
Il faudrait attendre que pepsi passe dans le coin pour voir s'il a une idée du problème...
Industry
Messages : 15
Enregistré le : ven. 04 oct., 2019 9:35

Re: Error creating mediainfo file

Message par Industry » sam. 05 oct., 2019 20:25

D'accord je vais patienter dans se cas, merci encore de ton aide... Moi non plus je ne comprend pas, vu que j'utilise vraiment m4ng depuis toujours et j'avais jamais eu aucun problèmes de ce genre...
Avatar du membre
Subbat
Administrateur
Administrateur
Messages : 8756
Enregistré le : jeu. 11 déc., 2008 20:12
Localisation : Quelque part... dans le centre de la France...

Re: Error creating mediainfo file

Message par Subbat » sam. 05 oct., 2019 20:29

Tu as essayé avec d'autres video pour voir ?
Industry
Messages : 15
Enregistré le : ven. 04 oct., 2019 9:35

Re: Error creating mediainfo file

Message par Industry » sam. 05 oct., 2019 21:14

Oui aussi rien en change.
Avatar du membre
Subbat
Administrateur
Administrateur
Messages : 8756
Enregistré le : jeu. 11 déc., 2008 20:12
Localisation : Quelque part... dans le centre de la France...

Re: Error creating mediainfo file

Message par Subbat » dim. 06 oct., 2019 10:47

Et tu les charges comment tes vidéos ? tu fais un glisser/déposer ou tu vas les chercher en cliquant sur [Video] ?
Suivant ce que tu fais, essaies l'autre façon...
Industry
Messages : 15
Enregistré le : ven. 04 oct., 2019 9:35

Re: Error creating mediainfo file

Message par Industry » dim. 06 oct., 2019 11:08

Je viens d’essayé mais toujours la même chose, même erreur.
Avatar du membre
Subbat
Administrateur
Administrateur
Messages : 8756
Enregistré le : jeu. 11 déc., 2008 20:12
Localisation : Quelque part... dans le centre de la France...

Re: Error creating mediainfo file

Message par Subbat » dim. 06 oct., 2019 11:25

Ok...
Essaies voir d'aller dans les paramètres de m4ng et d'activer le mode sans traces pour voir... Après l'avoir activé, tu cliques sur effacer toutes traces de m4ng puis tu redémarres m4ng et tu testes une vidéo...
Industry
Messages : 15
Enregistré le : ven. 04 oct., 2019 9:35

Re: Error creating mediainfo file

Message par Industry » dim. 06 oct., 2019 15:59

Super, pour moi ça marche maintenant, encore un grand merci ! Plus d'érreur ça fait plaisir.
Avatar du membre
Subbat
Administrateur
Administrateur
Messages : 8756
Enregistré le : jeu. 11 déc., 2008 20:12
Localisation : Quelque part... dans le centre de la France...

Re: Error creating mediainfo file

Message par Subbat » dim. 06 oct., 2019 16:11

Cool, content que ça fonctionne... Néanmoins, le mode sans trace est un peu particulier... il est à la base fait pour une sorte de m4ng portable...
Je ne sais pas (plus) ce que ça implique... mais qui dit sans trace veut sans doute dire aussi qu'il ne conserve pas de fichier de travail et ne garde plus en mémoire des éventuels profils d'encodage personnalisés...
Industry
Messages : 15
Enregistré le : ven. 04 oct., 2019 9:35

Re: Error creating mediainfo file

Message par Industry » dim. 06 oct., 2019 16:14

Ce n'est rien tant que ça règle le problème, moi je suis content... Encore un grand merci en tout cas.
Avatar du membre
pepsilite
The Grinch
The Grinch
Messages : 23228
Enregistré le : sam. 03 févr., 2007 19:13
Localisation : Chez moi le plus possible ...

Re: [Résolu] Error creating mediainfo file

Message par pepsilite » dim. 06 oct., 2019 16:35

ok, bonjour tout le monde ... si le fichier n'est pas créé c'est que mediainfo.exe ne le génère pas, s'il ne le génère pas c'est surement une question de droits ou d'accès, de windows en clair. Si ça marche en mode sans trace, c'est justement que tout se passe en dehors de la juridiction de Windows et qu'il ne bride pas tout comme à son habitude, je n'ai pas plus d'infos que ça ... Les voies de windows sont impénétrables .
06/01/2020 m4ng v6 est disponible au téléchargement en version finale : m4ng v6
Avatar du membre
pepsilite
The Grinch
The Grinch
Messages : 23228
Enregistré le : sam. 03 févr., 2007 19:13
Localisation : Chez moi le plus possible ...

Re: Error creating mediainfo file

Message par pepsilite » dim. 06 oct., 2019 16:36

Subbat a écrit :
dim. 06 oct., 2019 16:11
Cool, content que ça fonctionne... Néanmoins, le mode sans trace est un peu particulier... il est à la base fait pour une sorte de m4ng portable...
Je ne sais pas (plus) ce que ça implique... mais qui dit sans trace veut sans doute dire aussi qu'il ne conserve pas de fichier de travail et ne garde plus en mémoire des éventuels profils d'encodage personnalisés...
Non, ce n'est pas exactement ça, il conserve tout mais pour tout éliminer, il suffit de supprimer m4ng, tout part avec et il ne reste plus de "trace" sur le PC, et accessoirement ça permet aussi de s'affranchir des limitations imposées par windows.
06/01/2020 m4ng v6 est disponible au téléchargement en version finale : m4ng v6
Répondre