m4ng V6: durée de codage trè longue

support de m4ng dans sa version 6
Répondre
Lalou
Messages : 6
Enregistré le : sam. 11 janv., 2020 17:55

m4ng V6: durée de codage trè longue

Message par Lalou » sam. 11 janv., 2020 18:04

Bonjour,

J'ai constaté que la durée de codage avec la V6 est anormalement longue, même s'il ne s'agit que d'un fichier audio :gy: .
Cela est-il "normal" ?

Merci
Lalou.
Avatar du membre
Subbat
Administrateur
Administrateur
Messages : 8693
Enregistré le : jeu. 11 déc., 2008 20:12
Localisation : Quelque part... dans le centre de la France...

Re: m4ng V6: durée de codage trè longue

Message par Subbat » sam. 11 janv., 2020 18:16

Bonjour,

Peux-tu nous en dire plus ? Ce que tu fais exactement ?
De quelle source tu pars ? En mode autonome ou en mode normal ? Via le module ré-encodage audio ou via la fenêtre principale de m4ng d'encodage global ?

merci d'avance...
Lalou
Messages : 6
Enregistré le : sam. 11 janv., 2020 17:55

Re: m4ng V6: durée de codage trè longue

Message par Lalou » sam. 11 janv., 2020 18:32

Rebonjour,
J'ai commencé à utiliser m4ng avec la version V5: ré-encodage de vidéos très classiques (700 à 1000 Mo) en mode normal via la fenêtre principale.
Cela fonctionnait très bien et la durée du codage en deux passes me semblais comparable à celle d' autres logiciels.
Depuis la V6, pour le même type de conversions et de fichiers, la durée a facilement triplée, voir plus !

J'ai désinstallé et réinstallé l'application, avec la correction du 5 janvier, mais je constate toujours que la durée de codage est très très longue.
Peut-être un paramétrage à effectuer ?

Merci.
Lalou
Avatar du membre
Subbat
Administrateur
Administrateur
Messages : 8693
Enregistré le : jeu. 11 déc., 2008 20:12
Localisation : Quelque part... dans le centre de la France...

Re: m4ng V6: durée de codage trè longue

Message par Subbat » sam. 11 janv., 2020 19:18

Re bonjour,

J'ai oublié de te demander en quoi tu ré-encodais ? x264 ? x265 ?
Parce que nous avons constaté un bug, mais uniquement sur le x265 en mode autonome en 2 passes...
En mode normal, aucune différence de vitesse d'encodage n'a pour l'instant été constaté...
Merci donc de me dire si c'est du x264, x265 ou autre que tu encodes...
Dans ton 1er post tu parles d'audio ? Il faudrait aussi qu'on puisse savoir si c'est sur la partie audio ou la partie vidéo que l'encodage est plus long...
Lalou
Messages : 6
Enregistré le : sam. 11 janv., 2020 17:55

Re: m4ng V6: durée de codage trè longue

Message par Lalou » sam. 11 janv., 2020 20:15

Merci pour ta réponse.

Je ré-encode (en mode avancé) très souvent en x264 et pratiquement jamais en x265 et c'est plutôt sur la partie audio que j'ai constaté la lenteur du codage.

Bonne soirée.
Lalou.
Avatar du membre
Subbat
Administrateur
Administrateur
Messages : 8693
Enregistré le : jeu. 11 déc., 2008 20:12
Localisation : Quelque part... dans le centre de la France...

Re: m4ng V6: durée de codage trè longue

Message par Subbat » sam. 11 janv., 2020 22:17

Ok,

Peux tu me dire dans quel format audio tu essaies d'encoder ta source ?

Peux-tu copier ici :
1. l'analyse medianfo de ta vidéo source
2. le script avisynth correspondant à ton projet d'encodage : fichier Am4ng.avs que tu trouveras dans le dossier de travail de m4ng (bouton (?) => ouvrir le dossier de travail)

Je te demanderais peut-être ensuite de faire des tests...
Lalou
Messages : 6
Enregistré le : sam. 11 janv., 2020 17:55

Re: m4ng V6: durée de codage trè longue

Message par Lalou » dim. 12 janv., 2020 11:22

Bonjour,
J'ai fait un essai de ré-encodage d'un fichier source MP4 (x264; AAC LC) de 386 Mo en conteneur AVI (x264; AC3).
La durée de la conversion de la partie audio est de 90 minutes. Celle de la vidéo est en cours.

Le fichier de sortie Avi est destiné à Virtual Dub (qui ne gère pas le Mp4) afin de corriger le décalage progressif audio-vidéo du source.

A titre de comparaison, j'ai effectué la même tâche avec Format Factory. La durée totale de la conversion audio et vidéo est exactement de 3 minutes.

J'ai copié ci-dessous les contenus des fichiers mediainfo.txt et Am4ng.avs
---------------------------------------------------------------------------------------------

Code : Tout sélectionner

General
Count                                    : 331
Count of stream of this kind             : 1
Kind of stream                           : General
Kind of stream                           : General
Stream identifier                        : 0
Count of video streams                   : 1
Count of audio streams                   : 1
Video_Format_List                        : AVC
Video_Format_WithHint_List               : AVC
Codecs Video                             : AVC
Audio_Format_List                        : AAC LC
Audio_Format_WithHint_List               : AAC LC
Audio codecs                             : AAC LC
Complete name                            : C:\USERS\MB\DESKTOP\CONVER~1\GENTLY~1\INSPEC~1.MP4
Folder name                              : C:\USERS\MB\DESKTOP\CONVER~1\GENTLY~1
File name extension                      : INSPEC~1.MP4
File name                                : INSPEC~1
File extension                           : MP4
Format                                   : MPEG-4
Format                                   : MPEG-4
Format/Extensions usually used           : braw mov mp4 m4v m4a m4b m4p m4r 3ga 3gpa 3gpp 3gp 3gpp2 3g2 k3g jpm jpx mqv ismv isma ismt f4a f4b f4v
Commercial name                          : MPEG-4
Format profile                           : Base Media / Version 2
Internet media type                      : video/mp4
Codec ID                                 : mp42
Codec ID                                 : mp42 (isom/iso2/avc1/mp41)
Codec ID/Url                             : http://www.apple.com/quicktime/download/standalone.html
CodecID_Compatible                       : isom/iso2/avc1/mp41
File size                                : 405529442
File size                                : 387 MiB
File size                                : 387 MiB
File size                                : 387 MiB
File size                                : 387 MiB
File size                                : 386.7 MiB
Duration                                 : 5262467
Duration                                 : 1 h 27 min
Duration                                 : 1 h 27 min 42 s 467 ms
Duration                                 : 1 h 27 min
Duration                                 : 01:27:42.467
Duration                                 : 01:27:42:14
Duration                                 : 01:27:42.467 (01:27:42:14)
Overall bit rate                         : 616486
Overall bit rate                         : 616 kb/s
Frame rate                               : 30.000
Frame rate                               : 30.000 FPS
Frame count                              : 157874
Stream size                              : 4545233
Stream size                              : 4.33 MiB (1%)
Stream size                              : 4 MiB
Stream size                              : 4.3 MiB
Stream size                              : 4.33 MiB
Stream size                              : 4.335 MiB
Stream size                              : 4.33 MiB (1%)
Proportion of this stream                : 0.01121
HeaderSize                               : 4545225
DataSize                                 : 400984217
FooterSize                               : 0
IsStreamable                             : Yes
Title                                    : Encoded on Uptostream.com for customers
Movie name                               : Encoded on Uptostream.com for customers
File creation date                       : UTC 2020-01-12 07:22:05.815
File creation date (local)               : 2020-01-12 08:22:05.815
File last modification date              : UTC 2019-12-29 17:48:41.722
File last modification date (local)      : 2019-12-29 18:48:41.722
Writing application                      : Lavf58.12.100
Writing application                      : Lavf58.12.100

Video
Count                                    : 378
Count of stream of this kind             : 1
Kind of stream                           : Video
Kind of stream                           : Video
Stream identifier                        : 0
StreamOrder                              : 0
ID                                       : 1
ID                                       : 1
Format                                   : AVC
Format                                   : AVC
Format/Info                              : Advanced Video Codec
Format/Url                               : http://developers.videolan.org/x264.html
Commercial name                          : AVC
Format profile                           : Baseline@L3
Format settings                          : 3 Ref Frames
Format settings, CABAC                   : No
Format settings, CABAC                   : No
Format settings, Reference frames        : 3
Format settings, Reference frames        : 3 frames
Internet media type                      : video/H264
Codec ID                                 : avc1
Codec ID/Info                            : Advanced Video Coding
Duration                                 : 5262467
Duration                                 : 1 h 27 min
Duration                                 : 1 h 27 min 42 s 467 ms
Duration                                 : 1 h 27 min
Duration                                 : 01:27:42.467
Duration                                 : 01:27:42:14
Duration                                 : 01:27:42.467 (01:27:42:14)
Bit rate                                 : 512000
Bit rate                                 : 512 kb/s
Width                                    : 640
Width                                    : 640 pixels
Height                                   : 368
Height                                   : 368 pixels
Sampled_Width                            : 640
Sampled_Height                           : 368
Pixel aspect ratio                       : 1.000
Display aspect ratio                     : 1.739
Display aspect ratio                     : 1.739
Rotation                                 : 0.000
Frame rate mode                          : CFR
Frame rate mode                          : Constant
FrameRate_Mode_Original                  : VFR
Frame rate                               : 30.000
Frame rate                               : 30.000 FPS
Frame count                              : 157874
Color space                              : YUV
Chroma subsampling                       : 4:2:0
Chroma subsampling                       : 4:2:0
Bit depth                                : 8
Bit depth                                : 8 bits
Scan type                                : Progressive
Scan type                                : Progressive
Bits/(Pixel*Frame)                       : 0.072
Stream size                              : 337834223
Stream size                              : 322 MiB (83%)
Stream size                              : 322 MiB
Stream size                              : 322 MiB
Stream size                              : 322 MiB
Stream size                              : 322.2 MiB
Stream size                              : 322 MiB (83%)
Proportion of this stream                : 0.83307
Writing library                          : x264 - core 152 r2854 e9a5903
Writing library                          : x264 core 152 r2854 e9a5903
Encoded_Library_Name                     : x264
Encoded_Library_Version                  : core 152 r2854 e9a5903
Encoding settings                        : cabac=0 / ref=3 / deblock=1:0:0 / analyse=0x1:0x111 / me=hex / subme=7 / psy=1 / psy_rd=1.00:0.00 / mixed_ref=1 / me_range=16 / chroma_me=1 / trellis=1 / 8x8dct=0 / cqm=0 / deadzone=21,11 / fast_pskip=1 / chroma_qp_offset=-2 / threads=6 / lookahead_threads=1 / sliced_threads=0 / nr=0 / decimate=1 / interlaced=0 / bluray_compat=0 / constrained_intra=0 / bframes=0 / weightp=0 / keyint=300 / keyint_min=30 / scenecut=40 / intra_refresh=0 / rc_lookahead=40 / rc=abr / mbtree=1 / bitrate=512 / ratetol=1.0 / qcomp=0.60 / qpmin=0 / qpmax=69 / qpstep=4 / ip_ratio=1.40 / aq=1:1.00
Codec configuration box                  : avcC

Audio
Count                                    : 277
Count of stream of this kind             : 1
Kind of stream                           : Audio
Kind of stream                           : Audio
Stream identifier                        : 0
StreamOrder                              : 1
ID                                       : 2
ID                                       : 2
Format                                   : AAC
Format                                   : AAC LC
Format/Info                              : Advanced Audio Codec Low Complexity
Commercial name                          : AAC
Format_AdditionalFeatures                : LC
Codec ID                                 : mp4a-40-2
Duration                                 : 5262443
Duration                                 : 1 h 27 min
Duration                                 : 1 h 27 min 42 s 443 ms
Duration                                 : 1 h 27 min
Duration                                 : 01:27:42.443
Duration                                 : 01:27:28:21
Duration                                 : 01:27:42.443 (01:27:28:21)
Bit rate mode                            : CBR
Bit rate mode                            : Constant
Bit rate                                 : 96000
Bit rate                                 : 96.0 kb/s
Channel(s)                               : 2
Channel(s)                               : 2 channels
Channel positions                        : Front: L R
Channel positions                        : 2/0/0
Channel layout                           : L R
Samples per frame                        : 1024
Sampling rate                            : 48000
Sampling rate                            : 48.0 kHz
Samples count                            : 252597264
Frame rate                               : 46.875
Frame rate                               : 46.875 FPS (1024 SPF)
Frame count                              : 246677
Compression mode                         : Lossy
Compression mode                         : Lossy
Stream size                              : 63149986
Stream size                              : 60.2 MiB (16%)
Stream size                              : 60 MiB
Stream size                              : 60 MiB
Stream size                              : 60.2 MiB
Stream size                              : 60.22 MiB
Stream size                              : 60.2 MiB (16%)
Proportion of this stream                : 0.15572
Default                                  : Yes
Default                                  : Yes
Alternate group                          : 1
Alternate group                          : 1
---------------------------------------------------------------------------

Code : Tout sélectionner

# **** m4ng & AVIsynth 2.5x script **** pass 2+ 

LoadPlugin("C:\PROGRA~2\m4ng_v6\system\undot.dll")
LoadPlugin("C:\PROGRA~2\m4ng_v6\system\FluxSmooth.dll")
LoadPlugin("C:\PROGRA~2\m4ng_v6\system\Convolution3D.dll")
LoadPlugin("C:\PROGRA~2\m4ng_v6\system\MaskTools.dll")
LoadPlugin("C:\PROGRA~2\m4ng_v6\system\MVTools.dll")
LoadPlugin("C:\PROGRA~2\m4ng_v6\system\Asharp.dll")
LoadPlugin("C:\PROGRA~2\m4ng_v6\system\MSharpen.dll")
LoadPlugin("C:\PROGRA~2\m4ng_v6\system\TDeint.dll")
LoadPlugin("C:\PROGRA~2\m4ng_v6\system\VSFilter.dll") #1

Source="C:\USERS\MB\DESKTOP\CONVER~1\GENTLY~1\INSPEC~1.MP4"
Largeur=624
Hauteur=356
ratio  =1.752809
vratio =1.752809
real_l=624
real_l4=624
Crop_g=0
Crop_d=0
Crop_h=0
Crop_b=0
Borders_g=0
Borders_d=0
Borders_h=0
Borders_b=0
Bit_Rate=25.000000
Indice=0.243686

Video=DirectShowSource( Source, fps=30.000000).DelayAudio(0.000000)
Video=ConvertToYV12(Video)
#0 RESIZE
Video=BilinearResize(Video, Largeur, Hauteur)

Return(AssumeFrameBased(Video))
Avatar du membre
Subbat
Administrateur
Administrateur
Messages : 8693
Enregistré le : jeu. 11 déc., 2008 20:12
Localisation : Quelque part... dans le centre de la France...

Re: m4ng V6: durée de codage trè longue

Message par Subbat » dim. 12 janv., 2020 11:57

C'est effectivement anormalement long... Sur une vidéo similaire avec sortie similaire, ça ne met qu'une minute ou 2 pour l'audio chez moi...

Tu peux copier ici le contenu du fichier Goaudio.bat (clic droit + modifier pour afficher son contenu) et celui du fichier V200IDm4ng.avs

Pourrais-tu également poster l'image de l'analyse graphstudio (bouton (?) puis analyse graphstudio) de ta vidéo source ?


Tu peux essayer aussi d'utiliser le mode autonome qui n'utilise pas les mêmes outils pour le ré-encodage que le mode normal. Ca ne résoudra pas le problème de lenteur du mode normal, mais si là aussi c'est anormalement long c'est que le problème pourrait venir de la source... D'ailleurs, tu as essayé avec une autre vidéo pour voir si c'est aussi long...

Et enfin, pour corriger un décalage audio progressif d'un mp4, plutôt que de réencoder avant, je passerais ton mp4 dans mmg (voir le tuto de pepsi ici : http://www.m4ng.fr/les-tutoriels/les-tu ... ec-m4ng-v4)...
Mais comme il le dit, dans ce tuto, s'il y a un décalage audio progressif, c'est que la source est foireuse quand même...



Ah... une dernière chose... qui pourra peut-être aussi nous dire si le problème vient du passage à m4ng v6.... change la date de ton pc temporairement à une date antérieure, de sorte que ton pc soit en 2019... et essaie de faire ton réencodage avec m4ng v5 qui sera de nouveau fonctionnel... si la lenteur est toujours la même avec la v5, on saura que le problème ne vient pas de m4ng...
Lalou
Messages : 6
Enregistré le : sam. 11 janv., 2020 17:55

Re: m4ng V6: durée de codage trè longue

Message par Lalou » dim. 12 janv., 2020 18:08

Bonjour,
Après avoir réinstallé la version V5 (date du PC en 2019) comme tu l'a proposé et fait au moins une douzaine d'essais,
la conversion est très lente en V5 et V6 avec certains fichiers sources (issus de la même série)..
J'en déduis que le problème vient probablement des sources.

Je te remercie très sincèrement pour ton aide .
Cordialement.
Lalou.
Avatar du membre
Subbat
Administrateur
Administrateur
Messages : 8693
Enregistré le : jeu. 11 déc., 2008 20:12
Localisation : Quelque part... dans le centre de la France...

Re: m4ng V6: durée de codage trè longue

Message par Subbat » dim. 12 janv., 2020 21:03

Je t'en prie, le forum est la pour ça... ;)

Tu as essayé le mode autonome avec ses sources récalcitrantes ? Logiquement il devrait mieux s'en sortir.

Bonne soirée,
Subbat
Lalou
Messages : 6
Enregistré le : sam. 11 janv., 2020 17:55

Re: m4ng V6: durée de codage trè longue

Message par Lalou » lun. 13 janv., 2020 18:51

Bonsoir,
Merci pour l'information.
J’essaierai dès que possible et t'en informerai si c'est concluant.
Bonne soirée.

Lalou
Répondre