WMA

WMA

Messagepar Lobo » Sam 27 Juin, 2015 20:10

bonjour,

J’essaie de ré-encoder des vielles vidéos WMV avec son WMA ( premières versions) et cela donne une vidéo sans son.

Si quelqu'un à une idée, je lui en serait reconnaissant !

Voila ce que donne l'analyse de la vidéo :

General
Count : 288
Count of stream of this kind : 1
Kind of stream : General
Kind of stream : General
Stream identifier : 0
Count of video streams : 1
Count of audio streams : 1
Video_Format_List : WMV1
Video_Format_WithHint_List : WMV1
Codecs Video : WMV1
Audio_Format_List : WMA
Audio_Format_WithHint_List : WMA
Audio codecs : WMA1
Complete name : d:\MESVID~1\LTBIN~1.BD~\amy.wmv
Folder name : d:\MESVID~1\LTBIN~1.BD~
File name : amy
File extension : wmv
Format : Windows Media
Format : Windows Media
Format/Extensions usually used : asf wmv wma
Commercial name : Windows Media
Internet media type : video/x-ms-wmv
Codec : Windows Media
Codec : Windows Media
Codec/Extensions usually used : asf wmv wma
File size : 68554695
File size : 65.4 MiB
File size : 65 MiB
File size : 65 MiB
File size : 65.4 MiB
File size : 65.38 MiB
Duration : 567291
Duration : 9mn 27s
Duration : 9mn 27s 291ms
Duration : 9mn 27s
Duration : 00:09:27.291
Overall bit rate : 966766
Overall bit rate : 967 Kbps
Maximum Overall bit rate : 1596000
Maximum Overall bit rate : 1 596 Kbps
Stream size : 3342115
Stream size : 3.19 MiB (5%)
Stream size : 3 MiB
Stream size : 3.2 MiB
Stream size : 3.19 MiB
Stream size : 3.187 MiB
Stream size : 3.19 MiB (5%)
Proportion of this stream : 0.04875
HeaderSize : 757
DataSize : 68550450
Encoded date : UTC 1970-01-01 00:00:00.000
File creation date : UTC 2014-09-20 21:16:23.146
File creation date (local) : 2014-09-20 23:16:23.146
File last modification date : UTC 2014-09-20 21:38:42.423
File last modification date (local) : 2014-09-20 23:38:42.423
major_brand : mp42
minor_version : 19529845
compatible_brands : mp42isom
WM/EncodingSettings : Lavf54.29.104

Video
Count : 263
Count of stream of this kind : 1
Kind of stream : Video
Kind of stream : Video
Stream identifier : 0
StreamOrder : 0
ID : 1
ID : 1
Format : WMV1
Commercial name : WMV1
Codec ID : WMV1
Codec ID/Info : Windows Media Video 7
Codec ID/Url : http://www.microsoft.com/windows/window ... nload.aspx
Description of the codec : wmv1
Codec : WMV1
Codec : WMV1
Codec/Info : Windows Media Video 7
Codec/Url : http://www.microsoft.com/windows/window ... nload.aspx
Codec/CC : WMV1
Codec description : wmv1
Duration : 567300
Duration : 9mn 27s
Duration : 9mn 27s 300ms
Duration : 9mn 27s
Duration : 00:09:27.300
Bit rate : 823622
Bit rate : 824 Kbps
Width : 352
Width : 352 pixels
Height : 240
Height : 240 pixels
Pixel aspect ratio : 1.000
Display aspect ratio : 1.467
Display aspect ratio : 3:2
Frame rate : 30.000
Frame rate : 30.000 fps
Frame count : 17019
Standard : NTSC
Resolution : 8
Resolution : 8 bits
Bit depth : 8
Bit depth : 8 bits
Bits/(Pixel*Frame) : 0.325
Stream size : 58405100
Stream size : 55.7 MiB (85%)
Stream size : 56 MiB
Stream size : 56 MiB
Stream size : 55.7 MiB
Stream size : 55.70 MiB
Stream size : 55.7 MiB (85%)
Proportion of this stream : 0.85195

Audio
Count : 222
Count of stream of this kind : 1
Kind of stream : Audio
Kind of stream : Audio
Stream identifier : 0
StreamOrder : 1
ID : 2
ID : 2
Format : WMA
Commercial name : WMA
Format version : Version 1
Codec ID : 160
Codec ID/Info : Windows Media Audio
Codec ID/Url : http://www.microsoft.com/windows/window ... nload.aspx
Description of the codec : wmav1
Codec : 160
Codec : WMA1
Codec/Info : Windows Media Audio 1
Codec/Url : http://www.microsoft.com/windows/window ... nload.aspx
Codec/CC : 160
Codec description : wmav1
Duration : 567290
Duration : 9mn 27s
Duration : 9mn 27s 290ms
Duration : 9mn 27s
Duration : 00:09:27.290
Bit rate : 96000
Bit rate : 96.0 Kbps
Channel count : 2
Channel count : 2 channels
Sampling rate : 44100
Sampling rate : 44.1 KHz
Samples count : 25017533
Resolution : 16
Resolution : 16 bits
Bit depth : 16
Bit depth : 16 bits
Stream size : 6807480
Stream size : 6.49 MiB (10%)
Stream size : 6 MiB
Stream size : 6.5 MiB
Stream size : 6.49 MiB
Stream size : 6.492 MiB
Stream size : 6.49 MiB (10%)
Proportion of this stream : 0.09930
Lobo
 
Messages: 28
Inscription: 20 Fév 2011

Messagepar pepsilite » Sam 27 Juin, 2015 20:33

Salut
Tu as installé le codec WMA du pack de m4ng pour son décodage?
05/07/15 m4ng v5 est disponible au téléchargement en version finale : m4ng v5
Avatar de l’utilisateur
pepsilite
The Grinch
The Grinch
 
Messages: 22999
Inscription: 03 Fév 2007
Localisation: Chez moi le plus possible ...

Messagepar Lobo » Dim 28 Juin, 2015 23:35

Après installation du codec... pas de changement. :cry:
Il semble que j'ai ce problème avec le WMA inférieur à la version 9
Lobo
 
Messages: 28
Inscription: 20 Fév 2011

Messagepar pepsilite » Lun 29 Juin, 2015 1:13

Tu as esssayé en mode "autonome" de m4ng? Lui il n'utilise aucun codec externe, ça pourrait passer.
05/07/15 m4ng v5 est disponible au téléchargement en version finale : m4ng v5
Avatar de l’utilisateur
pepsilite
The Grinch
The Grinch
 
Messages: 22999
Inscription: 03 Fév 2007
Localisation: Chez moi le plus possible ...

Messagepar Lobo » Lun 29 Juin, 2015 10:24

En mode autonome, il semble bien me ré-encoder le son, Par contre pas d'images.
J'ai un XVID! dès que j’appuie sur le bouton "autonome".
Lobo
 
Messages: 28
Inscription: 20 Fév 2011

Messagepar pepsilite » Lun 29 Juin, 2015 12:00

le "!" signifie que le mode autonome est activé, si tu as le son en mode autonome et l'image en mode normal, il ne te reste plus qu'à "muxer" les 2 à la main si besoin ...
05/07/15 m4ng v5 est disponible au téléchargement en version finale : m4ng v5
Avatar de l’utilisateur
pepsilite
The Grinch
The Grinch
 
Messages: 22999
Inscription: 03 Fév 2007
Localisation: Chez moi le plus possible ...


Retourner vers m4ng V4

Qui est en ligne

Utilisateurs parcourant ce forum: Aucun utilisateur enregistré et 0 invités